Поиск

(Latin Jazz, World Fusion) Tito Puente & Giovanni Hidalgo - Jazz Latino 4 - 1997, WavPack (image+.cue), lossless

Треклист:
Tito Puente & Giovanni Hidalgo - Jazz Latino 4
Жанр: Latin Jazz, World Fusion
Страна-производитель диска: США
Год издания диска: 1997
Издатель (лейбл): RMM
Номер по каталогу: 82081
Аудиокодек: WavPack (*.wv)
Тип рипа: image+.cue
Битрейт аудио: lossless
Продолжительность: 55:25
Источник (релизер): bINkI (hqshare)
Наличие сканов в содержимом раздачи: да
Треклист:
01. Woody'n You - Tito Puente
02. Good Bucks - Giovanni Hidalgo
03. Nica's Tempo - Tito Puente
04. Call of the Jungle - Giovanni Hidalgo
05. Para el Rey - Tito Puente
06. From This Moment On - Giovanni Hidalgo
07. 8 Timbales - Tito Puente
08. Barandanga - Giovanni Hidalgo
 
Лог создания рипа
Exact Audio Copy V0.99 prebeta 4 from 23. January 2008
EAC extraction logfile from 5. November 2009, 12:52
Tito Puente and Giovanni Hidalgo / Jazz Latino
Used drive : HL-DT-STDVD-RAM GH22NP20 Adapter: 1 ID: 1
Read mode : Secure
Utilize accurate stream : Yes
Defeat audio cache : Yes
Make use of C2 pointers : No
Read offset correction : 102
Overread into Lead-In and Lead-Out : No
Fill up missing offset samples with silence : Yes
Delete leading and trailing silent blocks : No
Null samples used in CRC calculations : Yes
Used interface : Installed external ASPI interface
Used output format : Internal WAV Routines
Sample format : 44.100 Hz; 16 Bit; Stereo
Use compression offset : 102
TOC of the extracted CD
Track | Start | Length | Start sector | End sector
---------------------------------------------------------
1 | 0:00.00 | 5:48.72 | 0 | 26171
2 | 5:48.72 | 8:02.33 | 26172 | 62354
3 | 13:51.30 | 7:48.37 | 62355 | 97491
4 | 21:39.67 | 8:23.40 | 97492 | 135256
5 | 30:03.32 | 7:34.58 | 135257 | 169364
6 | 37:38.15 | 5:45.65 | 169365 | 195304
7 | 43:24.05 | 3:12.65 | 195305 | 209769
8 | 46:36.70 | 8:49.02 | 209770 | 249446
Range status and errors
Selected range
Filename H:\R\Tito Puente and Giovanni Hidalgo - Jazz Latino.wav
Peak level 93.7 %
Range quality 99.9 %
Test CRC 73313747
Copy CRC 73313747
Copy OK
No errors occurred
End of status report
 
Содержание индексной карты (.CUE)
REM GENRE "Latin Jazz"
REM DATE 1997
REM DISCID 5D0CFD08
REM COMMENT "ExactAudioCopy v0.99pb4"
PERFORMER "Tito Puente & Giovanni Hidalgo"
TITLE "Jazz Latino 4"
FILE "Tito Puente & Giovanni Hidalgo - Jazz Latino 4.wav" WAVE
TRACK 01 AUDIO
TITLE "Woody'n You"
PERFORMER "Tito Puente & Giovanni Hidalgo"
INDEX 01 00:00:00
TRACK 02 AUDIO
TITLE "Good Bucks"
PERFORMER "Tito Puente & Giovanni Hidalgo"
INDEX 00 05:45:32
INDEX 01 05:48:72
TRACK 03 AUDIO
TITLE "Nica's Tempo"
PERFORMER "Tito Puente & Giovanni Hidalgo"
INDEX 00 13:47:47
INDEX 01 13:51:30
TRACK 04 AUDIO
TITLE "Call of the Jungle"
PERFORMER "Tito Puente & Giovanni Hidalgo"
INDEX 00 21:36:12
INDEX 01 21:39:67
TRACK 05 AUDIO
TITLE "Para el Rey"
PERFORMER "Tito Puente & Giovanni Hidalgo"
INDEX 00 29:59:42
INDEX 01 30:03:32
TRACK 06 AUDIO
TITLE "From This Moment On"
PERFORMER "Tito Puente & Giovanni Hidalgo"
INDEX 00 37:34:42
INDEX 01 37:38:15
TRACK 07 AUDIO
TITLE "Timbales"
PERFORMER "Tito Puente & Giovanni Hidalgo"
INDEX 00 43:20:17
INDEX 01 43:24:05
TRACK 08 AUDIO
TITLE "Barandanga"
PERFORMER "Tito Puente & Giovanni Hidalgo"
INDEX 00 46:33:25
INDEX 01 46:36:70
 
Review by Evan C. Gutierrez
The popular Jazz Latino series from the RMM label, which has in the past featured such giants as Eddie Palmieri and Hilton Ruiz (Vol. 1), Humberto Ramírez and Charlie Sepulveda (Vol. 2), and Juan Pablo Torres and Dave Valentin (Vol. 3), now presents two of Latin jazz's most recognizable percussionists. Perhaps the most famous timbalero of all time, Tito Puente at one time employed conguero Giovanni Hidalgo. They now go head to head, trading track for track on this 1997 release. Though Hidalgo never became as successful a bandleader as Puente, it was not for lack of quality compositions or playing ability. Hidalgo is by most accounts the modern master of his instrument, and in addition to being the most in-demand conguero living, has recorded some very good albums as a leader. The tracks that appear on Jazz Latino, Vol. 4 all originated from his 1996 Time Shifter album. Hidalgo's taste for musical alchemy and rule breaking shine through, as does his instrumental prowess. Puente, the inventor of the Latino big-band sound and greatest proponent of the timbales as a focal point, rocks and swings his way through the record with a band sound so tight and so big that it could barely squeeze in between Hidalgo's tracks. Puente's compositional ideas are among the most sophisticated in jazz, and his orquestra one of the most widely revered. Jazz Latino, Vol. 4 is a fine opportunity to hear a pair of musicians whose careers are so close and voices so different.
22:09
365
Нет комментариев. Ваш будет первым!