Поиск

(Jazz, Swing, Afro Cuban, Funk, Latin) The O’Farrill Brothers - Giant Peach - 2011, FLAC (tracks+.cue), lossless

(Jazz, Swing, Afro Cuban, Funk, Latin) The O’Farrill Brothers - Giant Peach - 2011, FLAC (tracks+.cue), lossless
Треклист:
The O’Farrill Brothers / Giant Peach
Жанр: Jazz, Swing, Afro Cuban, Funk, Latin
Год издания диска: 2011
Издатель (лейбл): Zoho Music
Номер по каталогу: ZM 201101
Страна: BROOKLYN, New York, US
Аудиокодек: FLAC (*.flac)
Тип рипа: tracks+.cue
Битрейт аудио: lossless
Продолжительность: 00:53:25
Источник (релизер): 1ekzdm
Наличие сканов в содержимом раздачи: нет
Треклист:
01. Stablemates [6:14]
02. Face It! [9:17]
03. Giant Peach [6:59]
04. Side Street [7:22]
05. The composing Process [7:16]
06. Happy Hours [5:11]
07. Crazy Chicken [7:53]
08. Afterwalk [5:10]
 
Лог создания рипа
Exact Audio Copy V1.0 beta 1 from 15. November 2010
EAC extraction logfile from 23. April 2011, 3:41
The O'Farrill Brothers / Giant Peach
Used drive : SONY DVD-ROM DDU1613 Adapter: 0 ID: 0
Read mode : Secure
Utilize accurate stream : Yes
Defeat audio cache : Yes
Make use of C2 pointers : No
Read offset correction : 12
Overread into Lead-In and Lead-Out : No
Fill up missing offset samples with silence : Yes
Delete leading and trailing silent blocks : No
Null samples used in CRC calculations : Yes
Used interface : Installed external ASPI interface
Gap handling : Appended to previous track
Used output format : User Defined Encoder
Selected bitrate : 768 kBit/s
Quality : High
Add ID3 tag : No
Command line compressor : C:\Program Files\Exact Audio Copy\Flac\flac.exe
Additional command line options : -V -8 -T "artist=%a" -T "title=%t" -T "album=%g" -T "date=%y" -T "tracknumber=%n" -T "genre=%m" %s
TOC of the extracted CD
Track | Start | Length | Start sector | End sector
---------------------------------------------------------
1 | 0:00.00 | 6:14.44 | 0 | 28093
2 | 6:14.44 | 9:17.27 | 28094 | 69895
3 | 15:31.71 | 6:59.59 | 69896 | 101379
4 | 22:31.55 | 7:22.37 | 101380 | 134566
5 | 29:54.17 | 7:16.22 | 134567 | 167288
6 | 37:10.39 | 5:11.67 | 167289 | 190680
7 | 42:22.31 | 7:53.06 | 190681 | 226161
8 | 50:15.37 | 5:10.37 | 226162 | 249448
Track 1
Filename G:\Downloads\Giant Peach (FLAC)\The O'Farrill Brothers - Giant Peach - 01 - Stablemates.wav
Pre-gap length 0:00:02.00
Peak level 98.8 %
Extraction speed 4.4 X
Track quality 99.9 %
Test CRC DFB00AC9
Copy CRC DFB00AC9
Track not present in AccurateRip database
Copy OK
Track 2
Filename G:\Downloads\Giant Peach (FLAC)\The O'Farrill Brothers - Giant Peach - 02 - Face It!.wav
Peak level 98.8 %
Extraction speed 6.1 X
Track quality 100.0 %
Test CRC 612FCF35
Copy CRC 612FCF35
Track not present in AccurateRip database
Copy OK
Track 3
Filename G:\Downloads\Giant Peach (FLAC)\The O'Farrill Brothers - Giant Peach - 03 - Giant Peach.wav
Peak level 98.8 %
Extraction speed 6.8 X
Track quality 100.0 %
Test CRC 1DFF79CB
Copy CRC 1DFF79CB
Track not present in AccurateRip database
Copy OK
Track 4
Filename G:\Downloads\Giant Peach (FLAC)\The O'Farrill Brothers - Giant Peach - 04 - Side Street.wav
Peak level 98.8 %
Extraction speed 7.5 X
Track quality 100.0 %
Test CRC 273D93BC
Copy CRC 273D93BC
Track not present in AccurateRip database
Copy OK
Track 5
Filename G:\Downloads\Giant Peach (FLAC)\The O'Farrill Brothers - Giant Peach - 05 - The Composing Process.wav
Peak level 98.8 %
Extraction speed 8.1 X
Track quality 100.0 %
Test CRC 40C672D1
Copy CRC 40C672D1
Track not present in AccurateRip database
Copy OK
Track 6
Filename G:\Downloads\Giant Peach (FLAC)\The O'Farrill Brothers - Giant Peach - 06 - Happy Hours.wav
Peak level 98.8 %
Extraction speed 8.3 X
Track quality 100.0 %
Test CRC 24C740A9
Copy CRC 24C740A9
Track not present in AccurateRip database
Copy OK
Track 7
Filename G:\Downloads\Giant Peach (FLAC)\The O'Farrill Brothers - Giant Peach - 07 - Crazy Chicken.wav
Peak level 98.8 %
Extraction speed 9.2 X
Track quality 100.0 %
Test CRC 92BC9915
Copy CRC 92BC9915
Track not present in AccurateRip database
Copy OK
Track 8
Filename G:\Downloads\Giant Peach (FLAC)\The O'Farrill Brothers - Giant Peach - 08 - Afterwalk.wav
Peak level 98.8 %
Extraction speed 7.2 X
Track quality 99.9 %
Test CRC 2EAFAA9D
Copy CRC 2EAFAA9D
Track not present in AccurateRip database
Copy OK
None of the tracks are present in the AccurateRip database
No errors occurred
End of status report
==== Log checksum E4D24C4BCB8C32EDB925269AE5E324FF89F5CBB5F3C542B7A5C08803CE8C51CF ====
 
Содержание индексной карты (.CUE)
REM GENRE Jazz
REM DATE 2011
REM DISCID 670CFD08
REM COMMENT "ExactAudioCopy v1.0b1"
PERFORMER "The O'Farrill Brothers"
TITLE "Giant Peach"
FILE "The O'Farrill Brothers - Giant Peach - 01 - Stablemates.wav" WAVE
TRACK 01 AUDIO
TITLE "Stablemates"
PERFORMER "The O'Farrill Brothers"
INDEX 01 00:00:00
FILE "The O'Farrill Brothers - Giant Peach - 02 - Face It!.wav" WAVE
TRACK 02 AUDIO
TITLE "Face It!"
PERFORMER "The O'Farrill Brothers"
INDEX 01 00:00:00
FILE "The O'Farrill Brothers - Giant Peach - 03 - Giant Peach.wav" WAVE
TRACK 03 AUDIO
TITLE "Giant Peach"
PERFORMER "The O'Farrill Brothers"
INDEX 01 00:00:00
FILE "The O'Farrill Brothers - Giant Peach - 04 - Side Street.wav" WAVE
TRACK 04 AUDIO
TITLE "Side Street"
PERFORMER "The O'Farrill Brothers"
INDEX 01 00:00:00
FILE "The O'Farrill Brothers - Giant Peach - 05 - The Composing Process.wav" WAVE
TRACK 05 AUDIO
TITLE "The composing Process"
PERFORMER "The O'Farrill Brothers"
INDEX 01 00:00:00
FILE "The O'Farrill Brothers - Giant Peach - 06 - Happy Hours.wav" WAVE
TRACK 06 AUDIO
TITLE "Happy Hours"
PERFORMER "The O'Farrill Brothers"
INDEX 01 00:00:00
FILE "The O'Farrill Brothers - Giant Peach - 07 - Crazy Chicken.wav" WAVE
TRACK 07 AUDIO
TITLE "Crazy Chicken"
PERFORMER "The O'Farrill Brothers"
INDEX 01 00:00:00
FILE "The O'Farrill Brothers - Giant Peach - 08 - Afterwalk.wav" WAVE
TRACK 08 AUDIO
TITLE "Afterwalk"
PERFORMER "The O'Farrill Brothers"
INDEX 01 00:00:00
 
Состав
Adam O'Farrill: trumpet; Livio Almeida: tenor saxophone; Zaccai Curtis: piano; Michael Sacks: bass; Zack O'Farrill: drums.
22:10
271
Нет комментариев. Ваш будет первым!