Поиск

(Latin Jazz / World Fusion) Poncho Sanchez - Psychedelic Blues - 2009, FLAC (tracks+.cue), lossless

(Latin Jazz / World Fusion) Poncho Sanchez - Psychedelic Blues - 2009, FLAC (tracks+.cue), lossless
Треклист:
Poncho Sanchez - Psychedelic Blues
Жанр: Latin Jazz / World Fusion
Год выпуска : 2009
Лейбл: Concord Records
Аудио кодек: FLAC
Тип рипа: tracks+.cue
Битрейт аудио: lossless
Продолжительность: 00:50:27
Рип: iforgotyourgel - What CD


01. Cantaloupe Island (5:08)
02. Crisis (4:35)
03. Psychedelic Blues (5:16)
04. Willie Bobo Medley (6:40)
05. Grand Central (4:49)
06. Slowly But Surely (4:10)
07. Silver's Serenade (6:20)
08. The One Ways (4:50)
09. Delifonse (3:56)
10. Con Sabor Latino (4:43)

 
EAC
Exact Audio Copy V0.99 prebeta 5 from 4. May 2009
EAC extraction logfile from 14. January 2010, 18:30
Poncho Sanchez / Psychedelic Blues
Used drive : Optiarc DVD+-RW AD-7640A Adapter: 0 ID: 0
Read mode : Secure
Utilize accurate stream : Yes
Defeat audio cache : Yes
Make use of C2 pointers : No
Read offset correction : 6
Overread into Lead-In and Lead-Out : No
Fill up missing offset samples with silence : Yes
Delete leading and trailing silent blocks : No
Null samples used in CRC calculations : Yes
Used interface : Native Win32 interface for Win NT & 2000
Gap handling : Appended to previous track
Used output format : User Defined Encoder
Selected bitrate : 768 kBit/s
Quality : High
Add ID3 tag : No
Command line compressor : C:\Program Files\Exact Audio Copy\FLAC\FLAC.EXE
Additional command line options : -V -8 -T "artist=%a" -T "title=%t" -T "album=%g" -T "date=%y" -T "tracknumber=%n" -T "genre=%m" %s
TOC of the extracted CD
Track | Start | Length | Start sector | End sector
---------------------------------------------------------
1 | 0:00.00 | 5:08.02 | 0 | 23101
2 | 5:08.02 | 4:34.56 | 23102 | 43707
3 | 9:42.58 | 5:16.25 | 43708 | 67432
4 | 14:59.08 | 6:40.35 | 67433 | 97467
5 | 21:39.43 | 4:48.55 | 97468 | 119122
6 | 26:28.23 | 4:09.56 | 119123 | 137853
7 | 30:38.04 | 6:19.42 | 137854 | 166320
8 | 36:57.46 | 4:50.30 | 166321 | 188100
9 | 41:48.01 | 3:56.25 | 188101 | 205825
10 | 45:44.26 | 4:43.17 | 205826 | 227067
Track 1
Filename C:\torrents\what.cd\Poncho Sanchez - 2009 - Psychedelic Blues[FLAC]\01 - Cantaloupe Island.wav
Pre-gap length 0:00:02.00
Peak level 98.8 %
Track quality 100.0 %
Test CRC 79F4DEC4
Copy CRC 79F4DEC4
Accurately ripped (confidence 3) [DCC0D664]
Copy OK
Track 2
Filename C:\torrents\what.cd\Poncho Sanchez - 2009 - Psychedelic Blues[FLAC]\02 - Crisis.wav
Pre-gap length 0:00:00.37
Peak level 98.8 %
Track quality 100.0 %
Test CRC BF1B3F17
Copy CRC BF1B3F17
Accurately ripped (confidence 3) [7CC6A9E4]
Copy OK
Track 3
Filename C:\torrents\what.cd\Poncho Sanchez - 2009 - Psychedelic Blues[FLAC]\03 - Psychedelic Blues.wav
Pre-gap length 0:00:01.25
Peak level 98.8 %
Track quality 100.0 %
Test CRC CB962B92
Copy CRC CB962B92
Accurately ripped (confidence 3) [00D7F190]
Copy OK
Track 4
Filename C:\torrents\what.cd\Poncho Sanchez - 2009 - Psychedelic Blues[FLAC]\04 - Willie Bobo Medley.wav
Pre-gap length 0:00:01.07
Peak level 98.6 %
Track quality 99.9 %
Test CRC 97F7F255
Copy CRC 97F7F255
Accurately ripped (confidence 3) [50BC7E9E]
Copy OK
Track 5
Filename C:\torrents\what.cd\Poncho Sanchez - 2009 - Psychedelic Blues[FLAC]\05 - Grand Central.wav
Pre-gap length 0:00:01.08
Peak level 98.5 %
Track quality 100.0 %
Test CRC 7C337E7D
Copy CRC 7C337E7D
Accurately ripped (confidence 3) [505C7D91]
Copy OK
Track 6
Filename C:\torrents\what.cd\Poncho Sanchez - 2009 - Psychedelic Blues[FLAC]\06 - Slowly But Surely.wav
Pre-gap length 0:00:01.66
Peak level 98.0 %
Track quality 100.0 %
Test CRC A95871D5
Copy CRC A95871D5
Accurately ripped (confidence 3) [7470BD83]
Copy OK
Track 7
Filename C:\torrents\what.cd\Poncho Sanchez - 2009 - Psychedelic Blues[FLAC]\07 - Silver's Serenade.wav
Pre-gap length 0:00:00.74
Peak level 98.8 %
Track quality 99.9 %
Test CRC E69E85B6
Copy CRC E69E85B6
Accurately ripped (confidence 3) [C2A49429]
Copy OK
Track 8
Filename C:\torrents\what.cd\Poncho Sanchez - 2009 - Psychedelic Blues[FLAC]\08 - The One Ways.wav
Pre-gap length 0:00:02.60
Peak level 98.8 %
Track quality 100.0 %
Test CRC 3E823923
Copy CRC 3E823923
Accurately ripped (confidence 3) [CA06785B]
Copy OK
Track 9
Filename C:\torrents\what.cd\Poncho Sanchez - 2009 - Psychedelic Blues[FLAC]\09 - Delifonse.wav
Pre-gap length 0:00:00.71
Peak level 98.6 %
Track quality 100.0 %
Test CRC 9019ABE0
Copy CRC 9019ABE0
Accurately ripped (confidence 3) [A9DE5D3A]
Copy OK
Track 10
Filename C:\torrents\what.cd\Poncho Sanchez - 2009 - Psychedelic Blues[FLAC]\10 - Con Sabor Latino.wav
Pre-gap length 0:00:01.36
Peak level 98.8 %
Track quality 100.0 %
Test CRC D7817AF9
Copy CRC D7817AF9
Accurately ripped (confidence 3) [C50B7E3E]
Copy OK
All tracks accurately ripped
No errors occurred
End of status report
 
CUE
REM GENRE "Jazz"
REM DATE 2009
REM DISCID 6B0BD30A
REM COMMENT "ExactAudioCopy v0.99pb5"
PERFORMER "Poncho Sanchez"
TITLE "Psychedelic Blues"
FILE "01 - Cantaloupe Island.wav" WAVE
TRACK 01 AUDIO
TITLE "Cantaloupe Island"
PERFORMER "Poncho Sanchez"
INDEX 01 00:00:00
TRACK 02 AUDIO
TITLE "Crisis"
PERFORMER "Poncho Sanchez"
INDEX 00 05:07:40
FILE "02 - Crisis.wav" WAVE
INDEX 01 00:00:00
TRACK 03 AUDIO
TITLE "Psychedelic Blues"
PERFORMER "Poncho Sanchez"
INDEX 00 04:33:31
FILE "03 - Psychedelic Blues.wav" WAVE
INDEX 01 00:00:00
TRACK 04 AUDIO
TITLE "Willie Bobo Medley"
PERFORMER "Poncho Sanchez"
INDEX 00 05:15:18
FILE "04 - Willie Bobo Medley.wav" WAVE
INDEX 01 00:00:00
TRACK 05 AUDIO
TITLE "Grand Central"
PERFORMER "Poncho Sanchez"
INDEX 00 06:39:27
FILE "05 - Grand Central.wav" WAVE
INDEX 01 00:00:00
TRACK 06 AUDIO
TITLE "Slowly But Surely"
PERFORMER "Poncho Sanchez"
INDEX 00 04:46:64
FILE "06 - Slowly But Surely.wav" WAVE
INDEX 01 00:00:00
TRACK 07 AUDIO
TITLE "Silver's Serenade"
PERFORMER "Poncho Sanchez"
INDEX 00 04:08:57
FILE "07 - Silver's Serenade.wav" WAVE
INDEX 01 00:00:00
TRACK 08 AUDIO
TITLE "The One Ways"
PERFORMER "Poncho Sanchez"
INDEX 00 06:16:57
FILE "08 - The One Ways.wav" WAVE
INDEX 01 00:00:00
TRACK 09 AUDIO
TITLE "Delifonse "
PERFORMER "Poncho Sanchez"
INDEX 00 04:49:34
FILE "09 - Delifonse.wav" WAVE
INDEX 01 00:00:00
TRACK 10 AUDIO
TITLE "Con Sabor Latino"
PERFORMER "Poncho Sanchez"
INDEX 00 03:54:64
FILE "10 - Con Sabor Latino.wav" WAVE
INDEX 01 00:00:00
 
Audiochecker
Started at: пятница, 15. 01. 2010. - 6:36.56
10 files found
01 -===- C:\Downloads\Music\Джаз\Poncho Sanchez - Psychedelic Blues - 2009\01 - Cantaloupe Island.flac
Extracted successfully
Conclusion: This track looks like CDDA with probability 100%
Tempfile successfully deleted.
02 -===- C:\Downloads\Music\Джаз\Poncho Sanchez - Psychedelic Blues - 2009\02 - Crisis.flac
Extracted successfully
Conclusion: This track looks like CDDA with probability 100%
Tempfile successfully deleted.
03 -===- C:\Downloads\Music\Джаз\Poncho Sanchez - Psychedelic Blues - 2009\03 - Psychedelic Blues.flac
Extracted successfully
Conclusion: This track looks like CDDA with probability 100%
Tempfile successfully deleted.
04 -===- C:\Downloads\Music\Джаз\Poncho Sanchez - Psychedelic Blues - 2009\04 - Willie Bobo Medley.flac
Extracted successfully
Conclusion: This track looks like CDDA with probability 100%
Tempfile successfully deleted.
05 -===- C:\Downloads\Music\Джаз\Poncho Sanchez - Psychedelic Blues - 2009\05 - Grand Central.flac
Extracted successfully
Conclusion: This track looks like CDDA with probability 100%
Tempfile successfully deleted.
06 -===- C:\Downloads\Music\Джаз\Poncho Sanchez - Psychedelic Blues - 2009\06 - Slowly But Surely.flac
Extracted successfully
Conclusion: This track looks like CDDA with probability 100%
Tempfile successfully deleted.
07 -===- C:\Downloads\Music\Джаз\Poncho Sanchez - Psychedelic Blues - 2009\07 - Silver's Serenade.flac
Extracted successfully
Conclusion: This track looks like CDDA with probability 99%
Tempfile successfully deleted.
08 -===- C:\Downloads\Music\Джаз\Poncho Sanchez - Psychedelic Blues - 2009\08 - The One Ways.flac
Extracted successfully
Conclusion: This track looks like CDDA with probability 100%
Tempfile successfully deleted.
09 -===- C:\Downloads\Music\Джаз\Poncho Sanchez - Psychedelic Blues - 2009\09 - Delifonse.flac
Extracted successfully
Conclusion: This track looks like CDDA with probability 100%
Tempfile successfully deleted.
10 -===- C:\Downloads\Music\Джаз\Poncho Sanchez - Psychedelic Blues - 2009\10 - Con Sabor Latino.flac
Extracted successfully
Conclusion: This track looks like CDDA with probability 100%
Tempfile successfully deleted.
Finished at: пятница, 15. 01. 2010. - 6:45.34 (operation time: 0:08.37)

Poncho Sanchez - congas, percussion, lead vocals
David Torres - piano, Hammond B-3 Organ
Javier Vergara - tenor & alto saxophones
Ron Blake - trumpet, flugelhorn
Francisco A. Torres - trombone
Tony Banda - bass, background vocals
George Ortiz - timbales
Joey De León, Jr. - bongos, percussion, background vocals
Special Guest:
Arturo Sandoval - trumpet solo on "Crisis"
Additional Musicians:
Scott C. Martin - bariton saxophone"
Andrew Synowiec - guitar
Alfredo Ortiz - bongos, percussion
По всем вопросам пишите личное сообщение пользователю M0p94ok.
10:51
226
Нет комментариев. Ваш будет первым!