Поиск

(Latin Jazz / World Fusion) Miguel Zenon - Esta Plena - 2009, FLAC (tracks+.cue), lossless

(Latin Jazz / World Fusion) Miguel Zenon - Esta Plena - 2009, FLAC (tracks+.cue), lossless
Треклист:
Miguel Zenon - Esta Plena
Жанр: Latin Jazz / World Fusion
Год выпуска : 2009
Лейбл: Marsalis Music
Аудио кодек: FLAC
Тип рипа: tracks+.cue
Битрейт аудио: lossless
Продолжительность: 01:12:11
Рип: iforgotyourgel - What CD


01. Villa Palmeras (7:05)
02. Esta Plena (7:48)
03. Oyelo (6:16)
04. Residencial Llorens Torres (4:53)
05. Pandero y Pagode (8:25)
06. Calle Calma (4:38)
07. Villa Coope (8:59)
08. Que Sera de Puerto Rico (8:01)
09. Progreso (9:17)
10. Despedida (6:50)

 
EAC
Exact Audio Copy V0.99 prebeta 5 from 4. May 2009
EAC extraction logfile from 14. January 2010, 1:05
Miguel Zenon / Esta Plena
Used drive : Optiarc DVD+-RW AD-7640A Adapter: 0 ID: 0
Read mode : Secure
Utilize accurate stream : Yes
Defeat audio cache : Yes
Make use of C2 pointers : No
Read offset correction : 6
Overread into Lead-In and Lead-Out : No
Fill up missing offset samples with silence : Yes
Delete leading and trailing silent blocks : No
Null samples used in CRC calculations : Yes
Used interface : Native Win32 interface for Win NT & 2000
Gap handling : Appended to previous track
Used output format : User Defined Encoder
Selected bitrate : 768 kBit/s
Quality : High
Add ID3 tag : No
Command line compressor : C:\Program Files\Exact Audio Copy\FLAC\FLAC.EXE
Additional command line options : -V -8 -T "artist=%a" -T "title=%t" -T "album=%g" -T "date=%y" -T "tracknumber=%n" -T "genre=%m" %s
TOC of the extracted CD
Track | Start | Length | Start sector | End sector
---------------------------------------------------------
1 | 0:00.00 | 7:05.24 | 0 | 31898
2 | 7:05.24 | 7:47.71 | 31899 | 66994
3 | 14:53.20 | 6:16.19 | 66995 | 95213
4 | 21:09.39 | 4:52.59 | 95214 | 117172
5 | 26:02.23 | 8:24.57 | 117173 | 155029
6 | 34:27.05 | 4:37.42 | 155030 | 175846
7 | 39:04.47 | 8:58.58 | 175847 | 216254
8 | 48:03.30 | 8:01.19 | 216255 | 252348
9 | 56:04.49 | 9:16.74 | 252349 | 294122
10 | 65:21.48 | 6:49.74 | 294123 | 324871
Track 1
Filename C:\torrents\Miguel Zenon - 2009 - Esta Plena[FLAC]\01 - Villa Palmeras.wav
Pre-gap length 0:00:02.00
Peak level 97.6 %
Track quality 100.0 %
Test CRC 493DB278
Copy CRC 493DB278
Track not present in AccurateRip database
Copy OK
Track 2
Filename C:\torrents\Miguel Zenon - 2009 - Esta Plena[FLAC]\02 - Esta Plena.wav
Pre-gap length 0:00:00.72
Peak level 98.4 %
Track quality 100.0 %
Test CRC 922DF4BC
Copy CRC 922DF4BC
Track not present in AccurateRip database
Copy OK
Track 3
Filename C:\torrents\Miguel Zenon - 2009 - Esta Plena[FLAC]\03 - Oyelo.wav
Peak level 93.3 %
Track quality 99.9 %
Test CRC 6D386CCA
Copy CRC 6D386CCA
Track not present in AccurateRip database
Copy OK
Track 4
Filename C:\torrents\Miguel Zenon - 2009 - Esta Plena[FLAC]\04 - Residencial Llorens Torres.wav
Pre-gap length 0:00:00.68
Peak level 98.4 %
Track quality 100.0 %
Test CRC 960D79A4
Copy CRC 960D79A4
Track not present in AccurateRip database
Copy OK
Track 5
Filename C:\torrents\Miguel Zenon - 2009 - Esta Plena[FLAC]\05 - Pandero y Pagode.wav
Peak level 98.7 %
Track quality 100.0 %
Test CRC E1C64BC5
Copy CRC E1C64BC5
Track not present in AccurateRip database
Copy OK
Track 6
Filename C:\torrents\Miguel Zenon - 2009 - Esta Plena[FLAC]\06 - Calle Calma.wav
Peak level 93.3 %
Track quality 100.0 %
Test CRC 91A76654
Copy CRC 91A76654
Track not present in AccurateRip database
Copy OK
Track 7
Filename C:\torrents\Miguel Zenon - 2009 - Esta Plena[FLAC]\07 - Villa Coope.wav
Peak level 97.2 %
Track quality 100.0 %
Test CRC 2821C26D
Copy CRC 2821C26D
Track not present in AccurateRip database
Copy OK
Track 8
Filename C:\torrents\Miguel Zenon - 2009 - Esta Plena[FLAC]\08 - Que Sera de Puerto Rico.wav
Peak level 95.5 %
Track quality 100.0 %
Test CRC 7869E9AA
Copy CRC 7869E9AA
Track not present in AccurateRip database
Copy OK
Track 9
Filename C:\torrents\Miguel Zenon - 2009 - Esta Plena[FLAC]\09 - Progreso.wav
Peak level 93.2 %
Track quality 100.0 %
Test CRC 5F7B6CB2
Copy CRC 5F7B6CB2
Track not present in AccurateRip database
Copy OK
Track 10
Filename C:\torrents\Miguel Zenon - 2009 - Esta Plena[FLAC]\10 - Despedida.wav
Peak level 97.6 %
Track quality 100.0 %
Test CRC 14BFF155
Copy CRC 14BFF155
Track not present in AccurateRip database
Copy OK
None of the tracks are present in the AccurateRip database
No errors occurred
End of status report
 
CUE
REM GENRE "Jazz"
REM DATE 2009
REM DISCID 9A10EB0A
REM COMMENT "ExactAudioCopy v0.99pb5"
PERFORMER "Miguel Zenon"
TITLE "Esta Plena"
FILE "01 - Villa Palmeras.wav" WAVE
TRACK 01 AUDIO
TITLE "Villa Palmeras"
PERFORMER "Miguel Zenon"
INDEX 01 00:00:00
TRACK 02 AUDIO
TITLE "Esta Plena"
PERFORMER "Miguel Zenon"
INDEX 00 07:04:27
FILE "02 - Esta Plena.wav" WAVE
INDEX 01 00:00:00
FILE "03 - Oyelo.wav" WAVE
TRACK 03 AUDIO
TITLE "Oyelo"
PERFORMER "Miguel Zenon"
INDEX 01 00:00:00
TRACK 04 AUDIO
TITLE "Residencial Llorens Torres"
PERFORMER "Miguel Zenon"
INDEX 00 06:15:26
FILE "04 - Residencial Llorens Torres.wav" WAVE
INDEX 01 00:00:00
FILE "05 - Pandero y Pagode.wav" WAVE
TRACK 05 AUDIO
TITLE "Pandero y Pagode"
PERFORMER "Miguel Zenon"
INDEX 01 00:00:00
FILE "06 - Calle Calma.wav" WAVE
TRACK 06 AUDIO
TITLE "Calle Calma"
PERFORMER "Miguel Zenon"
INDEX 01 00:00:00
FILE "07 - Villa Coope.wav" WAVE
TRACK 07 AUDIO
TITLE "Villa Coope"
PERFORMER "Miguel Zenon"
INDEX 01 00:00:00
FILE "08 - Que Sera de Puerto Rico.wav" WAVE
TRACK 08 AUDIO
TITLE "Que Sera de Puerto Rico"
PERFORMER "Miguel Zenon"
INDEX 01 00:00:00
FILE "09 - Progreso.wav" WAVE
TRACK 09 AUDIO
TITLE "Progreso"
PERFORMER "Miguel Zenon"
INDEX 01 00:00:00
FILE "10 - Despedida.wav" WAVE
TRACK 10 AUDIO
TITLE "Despedida"
PERFORMER "Miguel Zenon"
INDEX 01 00:00:00
 
Audiochecker
Started at: пятница, 15. 01. 2010. - 8:24.51
10 files found
01 -===- C:\Downloads\Music\Джаз\Miguel Zenon - Esta Plena - 2009\01 - Villa Palmeras.flac
Extracted successfully
Conclusion: This track looks like CDDA with probability 100%
Tempfile successfully deleted.
02 -===- C:\Downloads\Music\Джаз\Miguel Zenon - Esta Plena - 2009\02 - Esta Plena.flac
Extracted successfully
Conclusion: This track looks like CDDA with probability 100%
Tempfile successfully deleted.
03 -===- C:\Downloads\Music\Джаз\Miguel Zenon - Esta Plena - 2009\03 - Oyelo.flac
Extracted successfully
Conclusion: This track looks like CDDA with probability 100%
Tempfile successfully deleted.
04 -===- C:\Downloads\Music\Джаз\Miguel Zenon - Esta Plena - 2009\04 - Residencial Llorens Torres.flac
Extracted successfully
Conclusion: This track looks like CDDA with probability 100%
Tempfile successfully deleted.
05 -===- C:\Downloads\Music\Джаз\Miguel Zenon - Esta Plena - 2009\05 - Pandero y Pagode.flac
Extracted successfully
Conclusion: This track looks like CDDA with probability 100%
Tempfile successfully deleted.
06 -===- C:\Downloads\Music\Джаз\Miguel Zenon - Esta Plena - 2009\06 - Calle Calma.flac
Extracted successfully
Conclusion: This track looks like CDDA with probability 100%
Tempfile successfully deleted.
07 -===- C:\Downloads\Music\Джаз\Miguel Zenon - Esta Plena - 2009\07 - Villa Coope.flac
Extracted successfully
Conclusion: This track looks like CDDA with probability 100%
Tempfile successfully deleted.
08 -===- C:\Downloads\Music\Джаз\Miguel Zenon - Esta Plena - 2009\08 - Que Sera de Puerto Rico.flac
Extracted successfully
Conclusion: This track looks like CDDA with probability 100%
Tempfile successfully deleted.
09 -===- C:\Downloads\Music\Джаз\Miguel Zenon - Esta Plena - 2009\09 - Progreso.flac
Extracted successfully
Conclusion: This track looks like CDDA with probability 100%
Tempfile successfully deleted.
10 -===- C:\Downloads\Music\Джаз\Miguel Zenon - Esta Plena - 2009\10 - Despedida.flac
Extracted successfully
Conclusion: This track looks like CDDA with probability 100%
Tempfile successfully deleted.
Finished at: пятница, 15. 01. 2010. - 8:38.13 (operation time: 0:13.22)

Miguel Zenon: alto saxophone, background vocals;
Luis Perdomo: piano;
Hans Glawischnig: acoustic bass;
Henry Cole: drums;
Hector "tito" Matos: lead vocals, percussion (requinto);
Obanilu Allende: background vocals, percussion (segundo);
Juan Gutierrez: background vocals, percussion (seguidor).
По всем вопросам пишите личное сообщение пользователю M0p94ok.
10:52
153
Нет комментариев. Ваш будет первым!