Поиск

(Latin Jazz, World Fusion) Papo Vazquez: Pirates and Troubadours - Carnival in San Juan - 2003, APE (image+.cue), lossless

Papo Vázquez: Pirates and Troubadours - Carnival in San Juan
Жанр: Latin Jazz, World Fusion
Страна-производитель диска: USA
Год издания диска: 2003
Издатель (лейбл): CuBop
Номер по каталогу: CBCD041
Страна: USA Philadelphia, Pennsylvania
Аудиокодек: APE (*.ape)
Тип рипа: image+.cue
Битрейт аудио: lossless
Продолжительность: 01:15:27
Источник (релизер): dreadbull
Наличие сканов в содержимом раздачи: да
01. Carnival In San Juan [05:40]
02. Mundo Bizarro [07:51]
03. Las Torres [08:23]
04. Plena Pa' Las Nenas [05:41]
05. Worlds [04:53]
06. Vianda Con Bacalao [05:56]
07. En La Cueva De Tan [11:41]
08. Stuffy Turkey [06:01]
09. Like A Little Child [06:10]
10. Snow Angel [05:15]
11. Carlitos Coco [04:39]
12. Fireflies From The Orion Nebula & Belen [03:17]
 
Лог создания рипа
EAC extraction logfile from 28. November 2009, 13:39 for CD
Papo Vazquez / Carnival In San Juan
Used drive : PLEXTOR DVDR PX-750A Adapter: 0 ID: 1
Read mode : Secure with NO C2, accurate stream, disable cache
Read offset correction : 102
Overread into Lead-In and Lead-Out : No
Used output format : Internal WAV Routines
44.100 Hz; 16 Bit; Stereo
Other options :
Fill up missing offset samples with silence : Yes
Delete leading and trailing silent blocks : No
Installed external ASPI interface
Range status and errors
Selected range
Filename E:\Donkey Files\Papo Vazquez - Carnival in San Juan (2003, CuBop) [eac-ape-scans]\CDImage.wav
Peak level 100.0 %
Range quality 100.0 %
CRC 4234A4B1
Copy OK
No errors occured
End of status report
 
Содержание индексной карты (.CUE)
PERFORMER "Papo Vazquez"
TITLE "Carnival In San Juan"
FILE "CDImage.wav" WAVE
TRACK 01 AUDIO
TITLE "Carnival In San Juan"
PERFORMER "Papo Vazquez"
INDEX 01 00:00:00
TRACK 02 AUDIO
TITLE "Mundo Bizarro"
PERFORMER "Papo Vazquez"
INDEX 00 05:40:49
INDEX 01 05:42:48
TRACK 03 AUDIO
TITLE "Las Torres"
PERFORMER "Papo Vazquez"
INDEX 00 13:31:22
INDEX 01 13:33:21
TRACK 04 AUDIO
TITLE "Plena Pa' Las Nenas"
PERFORMER "Papo Vazquez"
INDEX 00 21:54:66
INDEX 01 21:56:65
TRACK 05 AUDIO
TITLE "Worlds"
PERFORMER "Papo Vazquez"
INDEX 00 27:35:38
INDEX 01 27:37:37
TRACK 06 AUDIO
TITLE "Vianda Con Bacalao"
PERFORMER "Papo Vazquez"
INDEX 00 32:28:50
INDEX 01 32:30:49
TRACK 07 AUDIO
TITLE "En La Cueva De Tan"
PERFORMER "Papo Vazquez"
INDEX 00 38:24:05
INDEX 01 38:26:04
TRACK 08 AUDIO
TITLE "Stuffy Turkey"
PERFORMER "Papo Vazquez"
INDEX 00 50:05:54
INDEX 01 50:07:53
TRACK 09 AUDIO
TITLE "Like A Little Child"
PERFORMER "Papo Vazquez"
INDEX 00 56:06:18
INDEX 01 56:08:16
TRACK 10 AUDIO
TITLE "Snow Angel"
PERFORMER "Papo Vazquez"
INDEX 00 62:16:34
INDEX 01 62:18:31
TRACK 11 AUDIO
TITLE "Carlitos Coco"
PERFORMER "Papo Vazquez"
INDEX 00 67:31:37
INDEX 01 67:33:36
TRACK 12 AUDIO
TITLE "Fireflies From The Orion Nebula & Belen"
PERFORMER "Papo Vazquez"
INDEX 00 72:10:10
INDEX 01 72:12:09
 
Состав
Papo Vázquez - trombone, coro (#4,6), percussion (#6), synthesizer (#12), arranger (expt #5);
Joe Shepley - trumpet (#7);
Willie Williams - tenor sax (#1-6,8-11);
Ivan Renta - tenor sax (#7);
Mario Rivera - soprano & baritone sax, coro (#7);
Arturo O'Farrill - piano (#1-4,6,7,9-11), synthesizer (#12);
Fred McFarlane - piano (#5,8), synthesizer (#7);
John Benítez - bass (#1-5,8-11), electric bass (#6);
Carlos Henríquez - bass (#7);
Horacio "El Negro" Hernández - drums (#1,2,5,6,11), cua (#3);
Victor Jones - drums (#3,4,8-10);
Dafnis Prieto - drums (#7);
Roberto Cepeda - percussion (#1,3,4,7,12), lead vocals (#3,7,12), coro (#6,7);
Joe González - percussion (#1,3,4,5,12), conga & bongo (#2), conga (#6);
Tito Cepeda - percussion (#1,3,4,12);
Milton Cardona - percussion, coro (#7);
Lina de Vázquez, Miriam Felix, Susan Lee, Bill Lee & the Band - coro (#3,12);
Bill Lee - sermon (#9), arranger (#5).
02:00
276
Нет комментариев. Ваш будет первым!