Поиск

(Afro-Cuban Jazz, Latin Jazz) Bobby Sanabria Conducting The Manhattan School of Music Afro-Cuban Jazz Orchestra - Kenya Revisted Live!!! - 2009, APE (image+.cue), lossless

Bobby Sanabria Conducting The Manhattan School of Music Afro-Cuban Jazz Orchestra - Kenya Revisted Live!!!
Жанр: Afro-Cuban Jazz, Latin Jazz
Страна-производитель диска: USA
Год издания диска: 2009
Издатель (лейбл): Jazzheads
Номер по каталогу: JH1167
Страна: USA South Bronx, New York, NY
Аудиокодек: APE (*.ape)
Тип рипа: image+.cue
Битрейт аудио: lossless
Продолжительность: 01:12:32
Источник (релизер): dreadbull
Наличие сканов в содержимом раздачи: да
01. Intro [00:28]
02. Frenzy [05:38]
03. Congo Mulence [10:10]
04. Kenya [07:05]
05. Oyeme [04:19]
06. Holiday [04:12]
07. Cannonology [04:10]
08. Wild Jungle [05:00]
09. Blues a la Machito [03:45]
10. Conversation [04:41]
11. Theme and Variations on Tin Tin Deo [02:52]
12. Tin Tin Deo [10:24]
13. Minor Rama [03:39]
14. Tururato [06:09]
Rec. April 1, 2008, at Borden Auditorium, Manhattan School of Music, NYC.
 
Лог создания рипа
EAC extraction logfile from 17. July 2009, 20:52 for CD
Bobby Sanabria / Kenya Revisted Live!!!
Used drive : PLEXTOR DVDR PX-750A Adapter: 0 ID: 1
Read mode : Secure with NO C2, accurate stream, disable cache
Read offset correction : 102
Overread into Lead-In and Lead-Out : No
Used output format : Internal WAV Routines
44.100 Hz; 16 Bit; Stereo
Other options :
Fill up missing offset samples with silence : Yes
Delete leading and trailing silent blocks : No
Installed external ASPI interface
Range status and errors
Selected range
Filename E:\Donkey Files\Bobby Sanabria - Kenya Revisited Live!!! (2009, Jazzheads) [eac-ape-scans]\CDImage.wav
Peak level 100.0 %
Range quality 100.0 %
CRC A4F328D2
Copy OK
No errors occured
End of status report
 
Содержание индексной карты (.CUE)
CATALOG 0809819116724
PERFORMER "Bobby Sanabria"
TITLE "Kenya Revisted Live!!!"
FILE "CDImage.wav" WAVE
TRACK 01 AUDIO
TITLE "Intro"
PERFORMER "Bobby Sanabria"
ISRC USJH30910291
INDEX 01 00:00:00
TRACK 02 AUDIO
TITLE "Frenzy"
PERFORMER "Bobby Sanabria"
ISRC USJH30910263
INDEX 01 00:28:22
TRACK 03 AUDIO
TITLE "Congo Mulence "
PERFORMER "Bobby Sanabria"
ISRC USJH30910264
INDEX 01 06:06:22
TRACK 04 AUDIO
TITLE "Kenya"
PERFORMER "Bobby Sanabria"
ISRC USJH30910265
INDEX 01 16:16:50
TRACK 05 AUDIO
TITLE "Oyeme"
PERFORMER "Bobby Sanabria"
ISRC USJH30910266
INDEX 01 23:21:15
TRACK 06 AUDIO
TITLE "Holiday"
PERFORMER "Bobby Sanabria"
ISRC USJH30910267
INDEX 01 27:40:07
TRACK 07 AUDIO
TITLE "Cannonology"
PERFORMER "Bobby Sanabria"
ISRC USJH30910268
INDEX 01 31:52:32
TRACK 08 AUDIO
TITLE "Wild Jungle"
PERFORMER "Bobby Sanabria"
ISRC USJH30910269
INDEX 01 36:02:55
TRACK 09 AUDIO
TITLE "Blues a la Machito"
PERFORMER "Bobby Sanabria"
ISRC USJH30910270
INDEX 01 41:02:34
TRACK 10 AUDIO
TITLE "Conversation"
PERFORMER "Bobby Sanabria"
ISRC USJH30910271
INDEX 01 44:47:70
TRACK 11 AUDIO
TITLE "Theme and Variations on Tin Tin Deo"
PERFORMER "Bobby Sanabria"
ISRC USJH30910292
INDEX 01 49:28:15
TRACK 12 AUDIO
TITLE "Tin Tin Deo"
PERFORMER "Bobby Sanabria"
ISRC USJH30910272
INDEX 01 52:20:34
TRACK 13 AUDIO
TITLE "Minor Rama"
PERFORMER "Bobby Sanabria"
ISRC USJH30910273
INDEX 01 62:44:20
TRACK 14 AUDIO
TITLE "Tururato"
PERFORMER "Bobby Sanabria"
ISRC USJH30910274
INDEX 01 66:23:67
 
Состав
Bobby Sanabria - conductor, drums (#8), timbales solo (#3), vocals;
Candido Camero - congas (#4,8,14);
The Manhattan School of Music Afro-Cuban Jazz Orchestra:
Justin Janer - lead alto sax;
Vince Nero - 2nd alto sax;
Pawan Benhamin, Michael Davenport - tenor saxes;
Michael Sherman - baritone sax;
Michael Taylor - lead trumpet;
Jimmie "J.J." Kirkpatrick, Anthony Stanco, Jonathan Barnes - trumpets;
Timothy Vaughn - lead trombone;
Felix Fromm, Nate Adkins - trombones;
Timothy "T.J." Robinson - bass trombone;
Billy Norris - acoustic & electric (#12,14) bass;
Christian Sylvester Sands - piano;
Norman Edwards - drums (expt #8), bongó/cencerro (#8);
Giancarlo Anderson - bongó/cencerro (#2,7,10,14), congas (#4,8,12,13), guiro (#6,9), clave (#3,5), background vocals;
Jake Golblas - congas (#3,6,7,10), claves (#2,5,9,13), shekere (#4,8,12,), timbales (#14), background vocals;
Cristian Rivera - congas (#2), bongó/cencerro (#3,5,12,13), claves (#4,6,8,9,14), shekere (#10), guiro (#7), background vocals;
Obanilú Allende - guiro (#2,3,5,7,8,13), clave (#12), bongó/cencerro (#4,6,9), caja (conga with sticks - #10), congas (#14).
02:01
245
Нет комментариев. Ваш будет первым!