Поиск

(Latin Jazz, World Fusion) [CD] Willie Bobo - A New Dimension (1968) - 2002, FLAC (tracks+.cue), lossless

(Latin Jazz, World Fusion) [CD] Willie Bobo - A New Dimension (1968) - 2002, FLAC (tracks+.cue), lossless
Треклист:
Willie Bobo - A New Dimension (1968)
Жанр: Latin Jazz, World Fusion
Носитель: CD
Год издания: 2002
Издатель (лейбл): Verve
Номер по каталогу: 519 897-2
Аудиокодек: FLAC (*.flac)
Тип рипа: tracks+.cue
Битрейт аудио: lossless
Продолжительность: 38:48
Источник (релизер): What.cd (nikola23)
Наличие сканов в содержимом раздачи: сетевые
Треклист:
01. Psychedelic Blues (6:15)
02. The Look Of Love (4:19)
03. Grazing In The Grass (5:27)
04. Quieres Volver (3:55)
05. Yellow Days (3:51)
06. Lisa (6:15)
07. This Guy's In Love With You (2:59)
08. Sham Time (5:48)
 
 
Лог создания рипа
Exact Audio Copy V1.0 beta 1 from 15. November 2010
EAC extraction logfile from 11. March 2012, 1:51
Willie Bobo / A New Dimension
Used drive : HL-DT-STBD-RE GGW-H20L Adapter: 5 ID: 0
Read mode : Secure
Utilize accurate stream : Yes
Defeat audio cache : Yes
Make use of C2 pointers : No
Read offset correction : 667
Overread into Lead-In and Lead-Out : No
Fill up missing offset samples with silence : Yes
Delete leading and trailing silent blocks : No
Null samples used in CRC calculations : Yes
Used interface : Native Win32 interface for Win NT & 2000
Gap handling : Appended to previous track
Used output format : User Defined Encoder
Selected bitrate : 896 kBit/s
Quality : High
Add ID3 tag : No
Command line compressor : C:\Program Files (x86)\Exact Audio Copy\Flac\flac.exe
Additional command line options : -8 -V -T "ARTIST=%a" -T "TITLE=%t" -T "ALBUM=%g" -T "DATE=%y" -T "TRACKNUMBER=%n" -T "TOTALTRACKS=%x" -T "GENRE=%m" -T "ALBUM ARTIST=%v" -T "ALBUMARTIST=%v" -T "COMMENT=EAC V1.0 beta 1, Secure Mode, Test & Copy, AccurateRip
TOC of the extracted CD
Track | Start | Length | Start sector | End sector
---------------------------------------------------------
1 | 0:00.32 | 6:15.00 | 32 | 28156
2 | 6:15.32 | 4:18.50 | 28157 | 47556
3 | 10:34.07 | 5:27.03 | 47557 | 72084
4 | 16:01.10 | 3:54.45 | 72085 | 89679
5 | 19:55.55 | 3:50.55 | 89680 | 106984
6 | 23:46.35 | 6:14.42 | 106985 | 135076
7 | 30:01.02 | 2:58.65 | 135077 | 148491
8 | 32:59.67 | 5:48.10 | 148492 | 174601
Track 1
Filename E:\EACrips\01 - Psychedelic Blues.wav
Pre-gap length 0:00:02.42
Peak level 99.8 %
Extraction speed 1.1 X
Track quality 100.0 %
Test CRC FA9D6FE3
Copy CRC FA9D6FE3
Accurately ripped (confidence 5) [BC031719]
Copy OK
Track 2
Filename E:\EACrips\02 - The Look of Love.wav
Pre-gap length 0:00:02.62
Peak level 89.0 %
Extraction speed 1.1 X
Track quality 99.9 %
Test CRC 5E1F868D
Copy CRC 5E1F868D
Accurately ripped (confidence 5) [352AA291]
Copy OK
Track 3
Filename E:\EACrips\03 - Grazing in the Grass.wav
Pre-gap length 0:00:02.33
Peak level 89.0 %
Extraction speed 1.4 X
Track quality 100.0 %
Test CRC 5A204A84
Copy CRC 5A204A84
Accurately ripped (confidence 5) [8C2858A0]
Copy OK
Track 4
Filename E:\EACrips\04 - Quieres Volver.wav
Pre-gap length 0:00:02.10
Peak level 89.0 %
Extraction speed 1.4 X
Track quality 100.0 %
Test CRC 531D5541
Copy CRC 531D5541
Accurately ripped (confidence 5) [D14AF9A8]
Copy OK
Track 5
Filename E:\EACrips\05 - Yellow Days.wav
Pre-gap length 0:00:02.00
Peak level 89.0 %
Extraction speed 1.4 X
Track quality 100.0 %
Test CRC B0447ACC
Copy CRC B0447ACC
Accurately ripped (confidence 5) [59480BF5]
Copy OK
Track 6
Filename E:\EACrips\06 - Lisa.wav
Pre-gap length 0:00:01.57
Peak level 89.0 %
Extraction speed 1.4 X
Track quality 99.9 %
Test CRC 8A71706A
Copy CRC 8A71706A
Accurately ripped (confidence 5) [AC7A12C8]
Copy OK
Track 7
Filename E:\EACrips\07 - This Guy's in Love With You.wav
Pre-gap length 0:00:02.42
Peak level 89.0 %
Extraction speed 1.4 X
Track quality 100.0 %
Test CRC A05D60A4
Copy CRC A05D60A4
Accurately ripped (confidence 5) [D7C5F606]
Copy OK
Track 8
Filename E:\EACrips\08 - Sham Time.wav
Pre-gap length 0:00:01.76
Peak level 94.3 %
Extraction speed 1.7 X
Track quality 100.0 %
Test CRC 922E401B
Copy CRC 922E401B
Accurately ripped (confidence 5) [72AFB78F]
Copy OK
All tracks accurately ripped
No errors occurred
End of status report
==== Log checksum 03A2A0BE64B4922D33DE04071D273C823A35BA6369C6221C336876BF75086AEF ====
 
Содержание индексной карты (.CUE)
REM GENRE Jazz
REM DATE 1968
REM DISCID 74091808
REM COMMENT "ExactAudioCopy v1.0b1"
CATALOG 0731451989728
PERFORMER "Willie Bobo"
TITLE "A New Dimension"
FILE "01. Psychedelic Blues.flac" WAVE
TRACK 01 AUDIO
TITLE "Psychedelic Blues"
PERFORMER "Willie Bobo"
ISRC USGR10111032
PREGAP 00:00:32
INDEX 01 00:00:00
TRACK 02 AUDIO
TITLE "The Look Of Love"
PERFORMER "Willie Bobo"
ISRC USPR36880213
INDEX 00 06:12:28
FILE "02. The Look Of Love.flac" WAVE
INDEX 01 00:00:00
TRACK 03 AUDIO
TITLE "Grazing In The Grass"
PERFORMER "Willie Bobo"
ISRC USPR36880211
INDEX 00 04:16:25
FILE "03. Grazing In The Grass.flac" WAVE
INDEX 01 00:00:00
TRACK 04 AUDIO
TITLE "Quieres Volver"
PERFORMER "Willie Bobo"
ISRC USGR10111033
INDEX 00 05:24:70
FILE "04. Quieres Volver.flac" WAVE
INDEX 01 00:00:00
TRACK 05 AUDIO
TITLE "Yellow Days"
PERFORMER "Willie Bobo"
ISRC USGR10111034
INDEX 00 03:52:45
FILE "05. Yellow Days.flac" WAVE
INDEX 01 00:00:00
TRACK 06 AUDIO
TITLE "Lisa"
PERFORMER "Willie Bobo"
ISRC USPR36880212
INDEX 00 03:49:12
FILE "06. Lisa.flac" WAVE
INDEX 01 00:00:00
TRACK 07 AUDIO
TITLE "This Guy's In Love With You"
PERFORMER "Willie Bobo"
ISRC USGR10111035
INDEX 00 06:12:10
FILE "07. This Guy's In Love With You.flac" WAVE
INDEX 01 00:00:00
TRACK 08 AUDIO
TITLE "Sham Time"
PERFORMER "Willie Bobo"
ISRC USGR10111036
INDEX 00 02:57:08
FILE "08. Sham Time.flac" WAVE
INDEX 01 00:00:00
14:55
234
Нет комментариев. Ваш будет первым!