Поиск

(Boogaloo, Latin Soul, World Fusion) [CD] Pucho & his Latin Soul Brothers - Groovin' High - 1997, FLAC (image+.cue), lossless

(Boogaloo, Latin Soul, World Fusion) [CD] Pucho & his Latin Soul Brothers - Groovin' High - 1997, FLAC (image+.cue), lossless
Pucho & his Latin Soul Brothers - Groovin' High
Жанр: Boogaloo, Latin Soul, World Fusion
Носитель: CD
Страна-производитель диска: США
Год издания: 1997
Издатель (лейбл): Cannonball Records
Номер по каталогу: CBD 27103
Аудиокодек: FLAC (*.flac)
Тип рипа: image+.cue
Битрейт аудио: lossless
Продолжительность: 49:03
Источник (релизер): dreadbull (hqshare)
Наличие сканов в содержимом раздачи: да
Треклист:
01. Groovin' High [mambo] /Gillespie/ 5:03
02. On the Strip [acid jazz] /Stevens, Todd/ 5:24
03. Slow Hot Wind [bolero] /Mancini/ 5:11
04. I Like It Like That [cha cha rap] /Tony Pabón/ 6:52
05. Sons of Abraham [funk] /Levy/ 3:45
06. Yaina [Afro] /Sterling/ 5:03
07. Jiggy [Latin funk] /Sparks/ 5:51
08. If Ever I Would Leave You [bolero] /Lerner, Loewe/ 6:06
09. Tumbao à Peruchín 5 [descarga cubana] /A. Rodríguez/ 3:03
10. Struggle [Afro-Cubano] /Brown, Viera/ 1:35
 
Лог создания рипа
Exact Audio Copy V1.0 beta 3 from 29. August 2011
EAC extraction logfile from 27. March 2014, 1:44
Pucho and his Latin Soul Brothers / Groovin' High
Used drive : ASUS DRW-22B2L Adapter: 0 ID: 0
Read mode : Secure
Utilize accurate stream : Yes
Defeat audio cache : Yes
Make use of C2 pointers : No
Read offset correction : 6
Overread into Lead-In and Lead-Out : No
Fill up missing offset samples with silence : Yes
Delete leading and trailing silent blocks : No
Null samples used in CRC calculations : Yes
Used interface : Native Win32 interface for Win NT & 2000
Used output format : User Defined Encoder
Selected bitrate : 128 kBit/s
Quality : High
Add ID3 tag : Yes
Command line compressor : C:\Program Files (x86)\FLAC\flac.exe
Additional command line options : -8 -V -T "ARTIST=%artist%" -T "TITLE=%title%" -T "ALBUM=%albumtitle%" -T "DATE=%year%" -T "TRACKNUMBER=%tracknr%" -T "GENRE=%genre%" -T "PERFORMER=%albuminterpret%" -T "COMPOSER=%composer%" %haslyrics%--tag-from-file=LYRICS="%lyricsfile%"%haslyrics% -T "ALBUMARTIST=%albumartist%" -T "DISCNUMBER=%cdnumber%" -T "TOTALDISCS=%totalcds%" -T "TOTALTRACKS=%numtracks%" -T "COMMENT=%comment%" %source% -o %dest%
TOC of the extracted CD
Track | Start | Length | Start sector | End sector
---------------------------------------------------------
1 | 0:00.00 | 4:59.07 | 0 | 22431
2 | 4:59.07 | 5:33.18 | 22432 | 47424
3 | 10:32.25 | 5:09.57 | 47425 | 70656
4 | 15:42.07 | 6:49.38 | 70657 | 101369
5 | 22:31.45 | 3:45.20 | 101370 | 118264
6 | 26:16.65 | 5:08.45 | 118265 | 141409
7 | 31:25.35 | 6:49.62 | 141410 | 172146
8 | 38:15.22 | 6:04.38 | 172147 | 199484
9 | 44:19.60 | 3:04.22 | 199485 | 213306
10 | 47:24.07 | 1:39.30 | 213307 | 220761
Range status and errors
Selected range
Filename H:\Donkey Files\Pucho and his Latin Soul Brothers - Groovin High (1997, Cannonball) [eac-flac-scans] byDrBull\Pucho and his Latin Soul Brothers - Groovin High.wav
Peak level 99.9 %
Extraction speed 5.3 X
Range quality 99.9 %
Test CRC BB4920AA
Copy CRC BB4920AA
Copy OK
No errors occurred
AccurateRip summary
Track 1 not present in database
Track 2 not present in database
Track 3 not present in database
Track 4 not present in database
Track 5 not present in database
Track 6 not present in database
Track 7 not present in database
Track 8 not present in database
Track 9 not present in database
Track 10 not present in database
None of the tracks are present in the AccurateRip database
End of status report
 
Содержание индексной карты (.CUE)
REM GENRE Jazz
REM DATE 1997
REM DISCID 940B7F0A
REM COMMENT "ExactAudioCopy v1.0b3"
PERFORMER "Pucho and his Latin Soul Brothers"
TITLE "Groovin' High"
FILE "Pucho and his Latin Soul Brothers - Groovin' High.wav" WAVE
TRACK 01 AUDIO
TITLE "Groovin' High"
PERFORMER "Pucho and his Latin Soul Brothers"
INDEX 01 00:00:00
TRACK 02 AUDIO
TITLE "On the Strip"
PERFORMER "Pucho and his Latin Soul Brothers"
INDEX 00 04:56:37
INDEX 01 04:59:07
TRACK 03 AUDIO
TITLE "Slow Hot Wind"
PERFORMER "Pucho and his Latin Soul Brothers"
INDEX 00 10:29:60
INDEX 01 10:32:25
TRACK 04 AUDIO
TITLE "I Like It Like That"
PERFORMER "Pucho and his Latin Soul Brothers"
INDEX 00 15:39:37
INDEX 01 15:42:07
TRACK 05 AUDIO
TITLE "Sons of Abraham"
PERFORMER "Pucho and his Latin Soul Brothers"
INDEX 00 22:29:00
INDEX 01 22:31:45
TRACK 06 AUDIO
TITLE "Yaina"
PERFORMER "Pucho and his Latin Soul Brothers"
INDEX 00 26:14:20
INDEX 01 26:16:65
TRACK 07 AUDIO
TITLE "Jiggy"
PERFORMER "Pucho and his Latin Soul Brothers"
INDEX 00 31:22:67
INDEX 01 31:25:35
TRACK 08 AUDIO
TITLE "If I Ever Would Leave You"
PERFORMER "Pucho and his Latin Soul Brothers"
INDEX 00 38:12:55
INDEX 01 38:15:22
TRACK 09 AUDIO
TITLE "Tumbao a Peruchin 5"
PERFORMER "Pucho and his Latin Soul Brothers"
INDEX 00 44:17:07
INDEX 01 44:19:60
TRACK 10 AUDIO
TITLE "Struggle"
PERFORMER "Pucho and his Latin Soul Brothers"
INDEX 00 47:21:34
INDEX 01 47:24:07
 
Отчет CUETools
[CUETools log; Date: 03.07.2014 10:21:31; Version: 2.1.4]
[CTDB TOCID: 30xIrik3j5eym_RX36w8cfXNeag-] found.
Track | CTDB Status
1 | (1/1) Accurately ripped
2 | (1/1) Accurately ripped
3 | (1/1) Accurately ripped
4 | (1/1) Accurately ripped
5 | (1/1) Accurately ripped
6 | (1/1) Accurately ripped
7 | (1/1) Accurately ripped
8 | (1/1) Accurately ripped
9 | (1/1) Accurately ripped
10 | (1/1) Accurately ripped
[AccurateRip ID: 0013f27c-009ed857-940b7f0a] found.
Track [ CRC | V2 ] Status
01 [bedba647|916cdfcd] (0+1/2) Accurately ripped
02 [8abd4e19|5be50a9c] (0+1/2) Accurately ripped
03 [dbb0ecfa|5dd3ef72] (0+1/2) Accurately ripped
04 [2ed24827|119075c9] (0+1/2) Accurately ripped
05 [091d1566|f4f419a6] (0+1/2) Accurately ripped
06 [b95372a8|371bc8ce] (0+1/2) Accurately ripped
07 [b4f4b0a3|37ef5d6d] (0+1/2) Accurately ripped
08 [5fbf6d92|afd24c43] (0+1/2) Accurately ripped
09 [0e143d91|5ae271c0] (0+1/2) Accurately ripped
10 [91caa3bc|dad06aed] (0+1/2) Accurately ripped
Track Peak [ CRC32 ] [W/O NULL] [ LOG ]
-- 99,9 [BB4920AA] [C15AAC9F] CRC32
01 99,9 [E80ACABA] [A49380BB]
02 99,9 [19630385] [CDA05FDD]
03 87,0 [CDFCC386] [9BB97500]
04 99,8 [754E5457] [B44E7A6E]
05 99,9 [6BCBDBBE] [FF885BB9]
06 99,9 [FC92351A] [3EF1934C]
07 99,9 [A54C2D1B] [3C80235E]
08 99,8 [896C66B1] [FCA1A53E]
09 99,8 [C546E3EE] [52C087A9]
10 99,8 [3FE0B0D2] [F2DD554A]
 
Review by Alex Henderson
If anyone has successfully bridged the gap between Latin jazz and soul-jazz, it's Pucho, whose very accessible blend of hard bop, R&B and Afro-Cuban music took its share of knocks from jazz critics but was consistently swinging and could always liven up a party. The New York percussionist was 59 when Groovin' High came out on the small Cannonball label in 1997, but except for some experiments with rap, the CD isn't much different from his Prestige dates of the 1960s and early 1970s. From the funky, dancable grooves of "On the Strip," "Jiggy" and the James Brown-influenced "Sons of Abraham" to a caressing, Cal Tjader-ish version of Henry Mancini's "Slow Hot Wind" (which is played as a bolero or Latin-style ballad), much of Groovin' High sounds like it could have been recorded 25 or 30 years earlier. But you know this isn't a 1960s recording when Pucho and a late 1990s edition of his band, the Latin Soul Brothers, are joined by Latino rapper BaBee Power on the insanely catchy "I Like It Like That." Both hip-hop's hardcore and jazz purists tended to be wary of jazz-rap experiments, but the tune demonstrates that jazz, rap and salsa can be a very natural and organic combination. Groovin' High is a disc that longtime Pucho supporters shouldn't overlook.
 
Состав
Henry "Pucho" Brown - leader, timbales, cowbell;
Steve Berrios - cowbell, güiro;
Ernesto "Ernie" Colon - drums, congas, bongós, bells;
Jon Hart - Fender bass;
John "Mad Hatter" Spruill - piano, B3 organ;
Willie "Yam" Bivens - vibes;
Marvin Horne - guitar, wah-wah guitar;
Rick "Bongo" James - congas, bongós, djembe, bells;
Alvin Pazant - trumpet;
Ed Pazant - flute, alto & tenor sax;
Pamela Fleming - trumpet, muted trumpet, flugelhorn;
Lawrence Killian - congas, perro;
DJ Daze - scratches;
MC BaBee Power - rap.
Rec. at The Magic Shop, NYC.
15:56
291
Нет комментариев. Ваш будет первым!