Поиск

(Latin Jazz, World Fusion) [CD] Flora Purim And Airto - Wings Of Imagination, Double Set: The Magicians (1986) & The Sun Is Out (1989) - 2001, FLAC (tracks+.cue), lossless

(Latin Jazz, World Fusion) [CD] Flora Purim And Airto - Wings Of Imagination, Double Set: The Magicians (1986) & The Sun Is Out (1989) - 2001, FLAC (tracks+.cue), lossless
Треклист:
Flora Purim And Airto - Wings Of Imagination, Double Set

Жанр: Latin Jazz, World Fusion
Носитель: CD
Год издания: 2001
Издатель (лейбл): Concord
Номер по каталогу: CCD2-4973-2
Аудиокодек: FLAC (*.flac)
Тип рипа: tracks+.cue
Битрейт аудио: lossless
Продолжительность: 1:20:52
Источник (релизер): net
Наличие сканов в содержимом раздачи: да 
 
 
 
Disc One - The Magicians (1986)
Продолжительность: 38:41
Треклист:
01. Sweet Baby Blues (4:35)
02. Garimpo (4:37)
03. Esquinas (6:23)
04. Bird Of Paradise (3:32)
05. The Magicians (3:01)
06. Jennifer (5:30)
07. Jump (4:12)
08. Two Minutes Of Peace (3:10)
09. Love Reborn (3:40)
 
 
Лог создания рипа
EAC extraction logfile from 13. November 2006, 18:48 for CD
Flora Purim and Airto / The Magicians
Used drive : PLEXTOR DVDR PX-712A Adapter: 1 ID: 0
Read mode : Secure with NO C2, accurate stream, disable cache
Read offset correction : 30
Overread into Lead-In and Lead-Out : Yes
Used output format : D:\Tools\Rip\EAC\flac.exe (User Defined Encoder)
320 kBit/s
Additional command line options : -8 -V -T "ARTIST=%a" -T "TITLE=%t" -T "ALBUM=%g" -T "DATE=%y" -T "TRACKNUMBER=%n" -T "GENRE=%m" -T "COMMENT=EAC Flac 1.1.2 -8" %s
Other options :
Fill up missing offset samples with silence : Yes
Delete leading and trailing silent blocks : No
Installed external ASPI interface
Track 1
Filename C:\01 - Sweet Baby Blues.wav
Pre-gap length 0:00:02.00
Peak level 100.0 %
Track quality 100.0 %
Test CRC 5E5D3C24
Copy CRC 5E5D3C24
Copy OK
Track 2
Filename C:\02 - Garimpo.wav
Pre-gap length 0:00:02.10
Peak level 100.0 %
Track quality 100.0 %
Test CRC CA0F2AD4
Copy CRC CA0F2AD4
Copy OK
Track 3
Filename C:\03 - Esquinas.wav
Pre-gap length 0:00:01.52
Peak level 100.0 %
Track quality 100.0 %
Test CRC C97996EB
Copy CRC C97996EB
Copy OK
Track 4
Filename C:\04 - Bird Of Paradise.wav
Pre-gap length 0:00:02.10
Peak level 100.0 %
Track quality 100.0 %
Test CRC 422BC27E
Copy CRC 422BC27E
Copy OK
Track 5
Filename C:\05 - The Magicians.wav
Pre-gap length 0:00:02.25
Peak level 100.0 %
Track quality 99.9 %
Test CRC F1FABE6C
Copy CRC F1FABE6C
Copy OK
Track 6
Filename C:\06 - Jennifer.wav
Pre-gap length 0:00:01.65
Peak level 100.0 %
Track quality 99.9 %
Test CRC 2E4A71F1
Copy CRC 2E4A71F1
Copy OK
Track 7
Filename C:\07 - Jump.wav
Pre-gap length 0:00:02.43
Peak level 100.0 %
Track quality 100.0 %
Test CRC 68E9BC9E
Copy CRC 68E9BC9E
Copy OK
Track 8
Filename C:\08 - Two Minutes Of Peace.wav
Pre-gap length 0:00:02.00
Peak level 100.0 %
Track quality 100.0 %
Test CRC 168F9F86
Copy CRC 168F9F86
Copy OK
Track 9
Filename C:\09 - Love Reborn.wav
Pre-gap length 0:00:01.60
Peak level 100.0 %
Track quality 99.9 %
Test CRC D597365B
Copy CRC D597365B
Copy OK
No errors occured
End of status report
 
Содержание индексной карты (.CUE)
REM GENRE LatinJazz
REM DATE 1986
REM DISCID 68091009
REM COMMENT "ExactAudioCopy v0.95b2"
PERFORMER "Flora Purim and Airto"
TITLE "The Magicians"
FILE "01 - Sweet Baby Blues.wav" WAVE
TRACK 01 AUDIO
TITLE "Sweet Baby Blues"
PERFORMER "Flora Purim and Airto"
INDEX 01 00:00:00
TRACK 02 AUDIO
TITLE "Garimpo"
PERFORMER "Flora Purim and Airto"
INDEX 00 04:33:07
FILE "02 - Garimpo.wav" WAVE
INDEX 01 00:00:00
TRACK 03 AUDIO
TITLE "Esquinas"
PERFORMER "Flora Purim and Airto"
INDEX 00 04:35:23
FILE "03 - Esquinas.wav" WAVE
INDEX 01 00:00:00
TRACK 04 AUDIO
TITLE "Bird Of Paradise"
PERFORMER "Flora Purim and Airto"
INDEX 00 06:20:65
FILE "04 - Bird Of Paradise.wav" WAVE
INDEX 01 00:00:00
TRACK 05 AUDIO
TITLE "The Magicians"
PERFORMER "Flora Purim and Airto"
INDEX 00 03:29:50
FILE "05 - The Magicians.wav" WAVE
INDEX 01 00:00:00
TRACK 06 AUDIO
TITLE "Jennifer"
PERFORMER "Flora Purim and Airto"
INDEX 00 02:59:08
FILE "06 - Jennifer.wav" WAVE
INDEX 01 00:00:00
TRACK 07 AUDIO
TITLE "Jump"
PERFORMER "Flora Purim and Airto"
INDEX 00 05:27:37
FILE "07 - Jump.wav" WAVE
INDEX 01 00:00:00
TRACK 08 AUDIO
TITLE "Two Minutes Of Peace"
PERFORMER "Flora Purim and Airto"
INDEX 00 04:09:72
FILE "08 - Two Minutes Of Peace.wav" WAVE
INDEX 01 00:00:00
TRACK 09 AUDIO
TITLE "Love Reborn"
PERFORMER "Flora Purim and Airto"
INDEX 00 03:08:15
FILE "09 - Love Reborn.wav" WAVE
INDEX 01 00:00:00
 
CUETools log
[CUETools log; Date: 15.03.2014 21:22:18; Version: 2.0.9]
[CTDB TOCID: kbuXLpRniQJyBKT735r1zAfPjEg-] found.
[ CTDBID ] Status
[42b056a8] (1/1) Accurately ripped
[AccurateRip ID: 000dfe48-00657447-68091009] found.
Track [ CRC ] Status
01 [3d8d9a4f] (2/4) Accurately ripped
02 [070ebcb4] (2/4) Accurately ripped
03 [54648035] (2/4) Accurately ripped
04 [53e424d1] (2/4) Accurately ripped
05 [e68a7960] (2/4) Accurately ripped
06 [94d825f0] (2/4) Accurately ripped
07 [bc6c457a] (2/4) Accurately ripped
08 [c2399e5f] (2/4) Accurately ripped
09 [bdda1c1c] (2/4) Accurately ripped
Track Peak [ CRC32 ] [W/O NULL] [ LOG ]
-- 100,0 [34AAC97D] [3F95CF08]
01 100,0 [5E5D3C24] [C48DCF37] CRC32
02 100,0 [CA0F2AD4] [31A64AC5] CRC32
03 100,0 [C97996EB] [0013FE4C] CRC32
04 100,0 [422BC27E] [A4C87FC9] CRC32
05 100,0 [F1FABE6C] [7F5F438C] CRC32
06 100,0 [2E4A71F1] [16CF0281] CRC32
07 100,0 [68E9BC9E] [1BAAD1CB] CRC32
08 100,0 [168F9F86] [217A6390] CRC32
09 100,0 [D597365B] [B368464E] CRC32
 
Disc Two - The Sun Is Out (1989)
Продолжительность: 42:11
Треклист:
01. Samba Do Cantor (4:40)
02. The Hope (3:58)
03. Viver De Amor (3:33)
04. Pablo Sereno (3:55)
05. The Sun Is Out (4:00)
06. Lua Flora (6:05)
07. Asas Da Imaginacao (3:49)
08. Forever Friends (3:54)
09. Midday Sun (3:36)
10. Olivia (Chages) (4:42)
 
 
Лог создания рипа
EAC extraction logfile from 13. November 2006, 19:44 for CD
Flora Purim and Airto / The Sun Is Out
Used drive : PLEXTOR DVDR PX-712A Adapter: 1 ID: 0
Read mode : Secure with NO C2, accurate stream, disable cache
Read offset correction : 30
Overread into Lead-In and Lead-Out : Yes
Used output format : D:\Tools\Rip\EAC\flac.exe (User Defined Encoder)
320 kBit/s
Additional command line options : -8 -V -T "ARTIST=%a" -T "TITLE=%t" -T "ALBUM=%g" -T "DATE=%y" -T "TRACKNUMBER=%n" -T "GENRE=%m" -T "COMMENT=EAC Flac 1.1.2 -8" %s
Other options :
Fill up missing offset samples with silence : Yes
Delete leading and trailing silent blocks : No
Installed external ASPI interface
Track 1
Filename C:\01 - Samba Do Cantor.wav
Pre-gap length 0:00:02.00
Peak level 100.0 %
Track quality 100.0 %
Test CRC 3AEC9FDB
Copy CRC 3AEC9FDB
Copy OK
Track 2
Filename C:\02 - The Hope.wav
Peak level 100.0 %
Track quality 100.0 %
Test CRC 71E46931
Copy CRC 71E46931
Copy OK
Track 3
Filename C:\03 - Viver De Amor.wav
Pre-gap length 0:00:03.65
Peak level 100.0 %
Track quality 100.0 %
Test CRC 53AE665F
Copy CRC 53AE665F
Copy OK
Track 4
Filename C:\04 - Pablo Sereno.wav
Pre-gap length 0:00:03.30
Peak level 99.9 %
Track quality 100.0 %
Test CRC 87A0D775
Copy CRC 87A0D775
Copy OK
Track 5
Filename C:\05 - The Sun Is Out.wav
Pre-gap length 0:00:01.70
Peak level 100.0 %
Track quality 100.0 %
Test CRC FB5DAC57
Copy CRC FB5DAC57
Copy OK
Track 6
Filename C:\06 - Lua Flora.wav
Pre-gap length 0:00:01.08
Peak level 100.0 %
Track quality 100.0 %
Test CRC DD5C4D99
Copy CRC DD5C4D99
Copy OK
Track 7
Filename C:\07 - Asas Da Imaginacao.wav
Pre-gap length 0:00:03.12
Peak level 100.0 %
Track quality 100.0 %
Test CRC 9AC55DBD
Copy CRC 9AC55DBD
Copy OK
Track 8
Filename C:\08 - Forever Friends.wav
Pre-gap length 0:00:02.64
Peak level 100.0 %
Track quality 100.0 %
Test CRC E76F3568
Copy CRC E76F3568
Copy OK
Track 9
Filename C:\09 - Midday Sun.wav
Pre-gap length 0:00:02.45
Peak level 99.7 %
Track quality 99.8 %
Test CRC 93273A6A
Copy CRC 93273A6A
Copy OK
Track 10
Filename C:\10 - Olivia (Chages).wav
Peak level 100.0 %
Track quality 99.5 %
Test CRC 3D982DE0
Copy CRC 3D982DE0
Copy OK
No errors occured
End of status report
 
Содержание индексной карты (.CUE)
REM GENRE LatinJazz
REM DATE 1989
REM DISCID 6D09E30A
REM COMMENT "ExactAudioCopy v0.95b2"
PERFORMER "Flora Purim and Airto"
TITLE "The Sun Is Out"
FILE "01 - Samba Do Cantor.wav" WAVE
TRACK 01 AUDIO
TITLE "Samba Do Cantor"
PERFORMER "Flora Purim and Airto"
INDEX 01 00:00:00
FILE "02 - The Hope.wav" WAVE
TRACK 02 AUDIO
TITLE "The Hope"
PERFORMER "Flora Purim and Airto"
INDEX 01 00:00:00
TRACK 03 AUDIO
TITLE "Viver De Amor"
PERFORMER "Flora Purim and Airto"
INDEX 00 03:54:30
FILE "03 - Viver De Amor.wav" WAVE
INDEX 01 00:00:00
TRACK 04 AUDIO
TITLE "Pablo Sereno"
PERFORMER "Flora Purim and Airto"
INDEX 00 03:29:10
FILE "04 - Pablo Sereno.wav" WAVE
INDEX 01 00:00:00
TRACK 05 AUDIO
TITLE "The Sun Is Out"
PERFORMER "Flora Purim and Airto"
INDEX 00 03:53:05
FILE "05 - The Sun Is Out.wav" WAVE
INDEX 01 00:00:00
TRACK 06 AUDIO
TITLE "Lua Flora"
PERFORMER "Flora Purim and Airto"
INDEX 00 03:59:05
FILE "06 - Lua Flora.wav" WAVE
INDEX 01 00:00:00
TRACK 07 AUDIO
TITLE "Asas Da Imaginacao"
PERFORMER "Flora Purim and Airto"
INDEX 00 06:01:35
FILE "07 - Asas Da Imaginacao.wav" WAVE
INDEX 01 00:00:00
TRACK 08 AUDIO
TITLE "Forever Friends"
PERFORMER "Flora Purim and Airto"
INDEX 00 03:46:31
FILE "08 - Forever Friends.wav" WAVE
INDEX 01 00:00:00
TRACK 09 AUDIO
TITLE "Midday Sun"
PERFORMER "Flora Purim and Airto"
INDEX 00 03:51:40
FILE "09 - Midday Sun.wav" WAVE
INDEX 01 00:00:00
TRACK 10 AUDIO
TITLE "Olivia (Chages)"
PERFORMER "Flora Purim and Airto"
INDEX 00 03:32:00
FILE "10 - Olivia (Chages).wav" WAVE
INDEX 01 00:00:00
 
CUETools log
[CUETools log; Date: 15.03.2014 21:03:22; Version: 2.0.9]
[CTDB TOCID: kcXaWM4aA40CjVuGB6dTkrQKSkk-] found.
[ CTDBID ] Status
[17ea438f] (1/1) Accurately ripped
[AccurateRip ID: 000fe41a-007f3066-6d09e30a] found.
Track [ CRC ] Status
01 [140d0248] (2/4) Accurately ripped
02 [10353040] (2/4) Accurately ripped
03 [f2606139] (2/4) Accurately ripped
04 [9647e818] (2/4) Accurately ripped
05 [285dc82a] (2/4) Accurately ripped
06 [5b88ff21] (2/4) Accurately ripped
07 [6cf73941] (2/4) Accurately ripped
08 [e4e02259] (2/4) Accurately ripped
09 [6ad8f24c] (2/4) Accurately ripped
10 [c999bf17] (2/4) Accurately ripped
Offsetted by 1729:
01 [78a25efc] (2/4) No match but offset
02 [79fe4bd3] (2/4) No match but offset
03 [35eea793] (2/4) No match but offset
04 [c1f652ff] (2/4) No match but offset
05 [6c8b35f8] (2/4) No match but offset
06 [028c1fc7] (2/4) No match but offset
07 [bf2a81ba] (2/4) No match but offset
08 [c5d64359] (2/4) No match but offset
09 [cdd01515] (2/4) No match but offset
10 [8a5fa6ad] (2/4) No match but offset
Track Peak [ CRC32 ] [W/O NULL] [ LOG ]
-- 100,0 [0C106989] [40EF16C3]
01 100,0 [3AEC9FDB] [D7332A6F] CRC32
02 100,0 [71E46931] [EDE6F3C4] CRC32
03 100,0 [53AE665F] [2A2BD148] CRC32
04 99,9 [87A0D775] [403A4D52] CRC32
05 100,0 [FB5DAC57] [FA1B0FE7] CRC32
06 100,0 [DD5C4D99] [E54EA070] CRC32
07 100,0 [9AC55DBD] [53C4E7A7] CRC32
08 100,0 [E76F3568] [14FD0099] CRC32
09 99,7 [93273A6A] [6A25B653] CRC32
10 100,0 [3D982DE0] [BD74BAD4] CRC32
13:51
317
Нет комментариев. Ваш будет первым!