Поиск

(Latin Jazz) VA - More Than Mambo: The Introduction To Afro-Cuban Jazz (2 CD) - 1995, FLAC (image+.cue), lossless

Треклист:
Various – More Than Mambo: The Introduction To Afro-Cuban Jazz (2 CD)

Жанр: Latin Jazz
Год издания: 1995
Издатель (лейбл): Verve
Номер по каталогу: 527 903-2
Аудиокодек: FLAC (*.flac)
Тип рипа: image+.cue
Битрейт аудио: lossless
Продолжительность: 53:43 / 51:17
Rip by bINkI
Наличие сканов в содержимом раздачи: да 
 
 
 
CD 1
Треклист:
01. Mas Que Nada (Patato Y Totico) (2:35)
02. Barbara Batibiri (Machito And His Orchestra) (2:57)
03. Picadillo (Cal Tjader And Eddie Palmieri) (7:06)
04. Manteca (The Chico O'Farrill Orchestra) (2:48)
05. Tumba El Quinto (Machito And His Orchestra) (2:51)
06. Ponce (Noro Morales And His Orchestra) (2:54)
07. Descarga Cubana (Cal Tjader) (2:57)
08. Vive Como Yo (Machito And His Orchestra) (2:59)
09. Guajira En Azul (Cal Tjader And Eddie Palmieri) (3:28)
10. En El Callejon (Patato Y Totico) (3:55)
11. Insight (Cal Tjader) (5:34)
12. Donkey Serenade (Machito And His Orchestra) (3:01)
13. Arinanara / Nague (Miguelito Valdes) (2:05)
14. 110th St. & 5th Ave. (Noro Morales And His Orchestra) (2:50)
15. Davito (Cal Tjader) (2:39)
16. Desert Dance (Machito And His Orchestra) (3:03)
 
 
Лог создания рипа
Exact Audio Copy V0.99 prebeta 5 from 4. May 2009
EAC extraction logfile from 4. May 2010, 10:23
Various / More Than Mambo: The Introduction to Afro-Cuban Jazz [Cd 1]
Used drive : HL-DT-STDVD-RAM GH22NP20 Adapter: 1 ID: 1
Read mode : Secure
Utilize accurate stream : Yes
Defeat audio cache : Yes
Make use of C2 pointers : No
Read offset correction : 102
Overread into Lead-In and Lead-Out : No
Fill up missing offset samples with silence : Yes
Delete leading and trailing silent blocks : No
Null samples used in CRC calculations : Yes
Used interface : Native Win32 interface for Win NT & 2000
Used output format : Internal WAV Routines
Sample format : 44.100 Hz; 16 Bit; Stereo
TOC of the extracted CD
Track | Start | Length | Start sector | End sector
---------------------------------------------------------
1 | 0:00.00 | 2:35.37 | 0 | 11661
2 | 2:35.37 | 2:57.33 | 11662 | 24969
3 | 5:32.70 | 7:05.65 | 24970 | 56909
4 | 12:38.60 | 2:47.52 | 56910 | 69486
5 | 15:26.37 | 2:50.40 | 69487 | 82276
6 | 18:17.02 | 2:53.48 | 82277 | 95299
7 | 21:10.50 | 2:57.20 | 95300 | 108594
8 | 24:07.70 | 2:59.10 | 108595 | 122029
9 | 27:07.05 | 3:28.25 | 122030 | 137654
10 | 30:35.30 | 3:55.15 | 137655 | 155294
11 | 34:30.45 | 5:34.12 | 155295 | 180356
12 | 40:04.57 | 3:01.35 | 180357 | 193966
13 | 43:06.17 | 2:04.53 | 193967 | 203319
14 | 45:10.70 | 2:49.72 | 203320 | 216066
15 | 48:00.67 | 2:39.08 | 216067 | 227999
16 | 50:40.00 | 3:03.17 | 228000 | 241741
Range status and errors
Selected range
Filename C:\Documents and Settings\Riccardo\Desktop\R\V.A. - More than Mambo\V.A. - More Than Mambo-The Introduction to Afro-Cuban Jazz [Cd 1].wav
Peak level 99.6 %
Range quality 100.0 %
Test CRC 9F113C1E
Copy CRC 9F113C1E
Copy OK
No errors occurred
End of status report
 
Содержание индексной карты (.CUE)
REM GENRE "Afro-Cuban Jazz"
REM DATE 1995
REM DISCID E60C9710
REM COMMENT "ExactAudioCopy v0.99pb5"
CATALOG 0731452790323
PERFORMER "Various"
TITLE "More Than Mambo: The Introduction To Afro-Cuban Jazz (disc 1)"
FILE "VA - More Than Mambo (disc 1).flac" WAVE
TRACK 01 AUDIO
TITLE "Mas Que Nada"
PERFORMER "Patato Y Totico"
ISRC USPR36702774
INDEX 01 00:00:00
INDEX 02 01:44:57
TRACK 02 AUDIO
TITLE "Barbara Batibiri"
PERFORMER "Machito And His Orchestra"
ISRC USPR34902076
INDEX 00 02:32:70
INDEX 01 02:35:37
TRACK 03 AUDIO
TITLE "Picadillo"
PERFORMER "Cal Tjader And Eddie Palmieri"
ISRC USPR36602760
INDEX 00 05:30:47
INDEX 01 05:32:70
INDEX 02 10:37:52
TRACK 04 AUDIO
TITLE "Manteca"
PERFORMER "The Chico O'Farrill Orchestra"
ISRC USPR36702775
INDEX 00 12:36:55
INDEX 01 12:38:60
TRACK 05 AUDIO
TITLE "Tumba El Quinto"
PERFORMER "Machito And His Orchestra"
ISRC USPR34902077
INDEX 00 15:24:47
INDEX 01 15:26:37
TRACK 06 AUDIO
TITLE "Ponce"
PERFORMER "Noro Morales And His Orchestra"
ISRC USPR39506035
INDEX 00 18:15:27
INDEX 01 18:17:02
TRACK 07 AUDIO
TITLE "Descarga Cubana"
PERFORMER "Cal Tjader"
ISRC USPR36602761
INDEX 00 21:08:47
INDEX 01 21:10:50
TRACK 08 AUDIO
TITLE "Vive Como Yo"
PERFORMER "Machito And His Orchestra"
ISRC USPR34902078
INDEX 00 24:06:22
INDEX 01 24:07:70
TRACK 09 AUDIO
TITLE "Guajira En Azul"
PERFORMER "Cal Tjader And Eddie Palmieri"
ISRC USPR36602762
INDEX 00 27:05:10
INDEX 01 27:07:05
TRACK 10 AUDIO
TITLE "En El Callejon"
PERFORMER "Patato Y Totico"
ISRC USPR36702776
INDEX 00 30:33:12
INDEX 01 30:35:30
TRACK 11 AUDIO
TITLE "Insight"
PERFORMER "Cal Tjader"
ISRC USPR36305147
INDEX 00 34:28:30
INDEX 01 34:30:45
INDEX 02 37:54:65
TRACK 12 AUDIO
TITLE "Donkey Serenade"
PERFORMER "Machito And His Orchestra"
ISRC USPR34902079
INDEX 00 40:02:72
INDEX 01 40:04:57
TRACK 13 AUDIO
TITLE "Arinanara / Nague"
PERFORMER "Miguelito Valdes"
ISRC USPR36702777
INDEX 00 43:04:52
INDEX 01 43:06:17
TRACK 14 AUDIO
TITLE "110th St. & 5th Ave."
PERFORMER "Noro Morales And His Orchestra"
ISRC USPR39506036
INDEX 00 45:09:40
INDEX 01 45:10:70
TRACK 15 AUDIO
TITLE "Davito"
PERFORMER "Cal Tjader"
ISRC USPR36105149
INDEX 00 47:58:55
INDEX 01 48:00:67
TRACK 16 AUDIO
TITLE "Desert Dance"
PERFORMER "Machito And His Orchestra"
ISRC USPR34902080
INDEX 00 50:38:32
INDEX 01 50:40:00
INDEX 02 53:16:65
 
AccurateRip
[CUETools log; Date: 22.03.2012 0:41:15; Version: 2.0.9]
[CTDB TOCID: gAZmAYNF_ZE8DTFk0AASRPdhutw-] disk not present in database.
[AccurateRip ID: 00207712-0183d493-e60c9710] found.
Track [ CRC ] Status
01 [2969cb84] (3/6) Accurately ripped
02 [af83d290] (4/7) Accurately ripped
03 [533f1ce2] (4/7) Accurately ripped
04 [49125560] (4/7) Accurately ripped
05 [80e9c070] (4/7) Accurately ripped
06 [369bad1b] (4/7) Accurately ripped
07 [a8e5780d] (4/7) Accurately ripped
08 [669d640b] (4/7) Accurately ripped
09 [1c1bf7ad] (4/7) Accurately ripped
10 [48a600f8] (4/7) Accurately ripped
11 [cf22af24] (4/7) Accurately ripped
12 [a02ff287] (4/7) Accurately ripped
13 [65ef3608] (4/7) Accurately ripped
14 [90b2cc94] (4/7) Accurately ripped
15 [d5620915] (4/7) Accurately ripped
16 [f9892b9c] (4/7) Accurately ripped
Offsetted by -163:
01 [65d46835] (3/6) Accurately ripped
02 [d7a9db1a] (3/7) Accurately ripped
03 [14723130] (3/7) Accurately ripped
04 [fb9bac64] (3/7) Accurately ripped
05 [badc2d6e] (3/7) Accurately ripped
06 [de3f3d26] (3/7) Accurately ripped
07 [3d0fa53b] (3/7) Accurately ripped
08 [76ba61ee] (3/7) Accurately ripped
09 [47336e3a] (3/7) Accurately ripped
10 [1ebcbf26] (3/7) Accurately ripped
11 [f2ec9103] (3/7) Accurately ripped
12 [1324e54b] (3/7) Accurately ripped
13 [3af72457] (3/7) Accurately ripped
14 [821b0815] (3/7) Accurately ripped
15 [a892399f] (3/7) Accurately ripped
16 [5d929dfe] (3/7) Accurately ripped
Track Peak [ CRC32 ] [W/O NULL] [ LOG ]
-- 99,6 [9F113C1E] [F73BBFA4] CRC32
01 85,1 [C01BE734] [90F6B42B]
02 92,5 [70089CA4] [3D4984F0]
03 94,7 [72CB2DDD] [2F333858]
04 80,2 [356ABB2A] [73CB1384]
05 83,9 [6BAEC99B] [2BD29313]
06 78,2 [6AEF61C5] [93718B27]
07 89,1 [F1EF9141] [2D798E43]
08 81,1 [0EA248E3] [BF63A8C2]
09 92,1 [6C29471B] [98F9EF3E]
10 90,2 [45151D25] [B15318ED]
11 86,1 [61C8AC49] [09B4CB9B]
12 64,5 [80E2DF47] [4AC29495]
13 79,0 [E5280572] [FBDC303D]
14 76,3 [6EC368D9] [09BF6459]
15 99,6 [E6801CEF] [CF35529D]
16 97,6 [C2F752E3] [C21EFBA2]
 
CD 2
Треклист:
01. Tambo (Miguelito Valdes) (2:04)
02. It Don't End (Nao Se Acabou) (Cal Tjader) (3:57)
03. Ingrato Corazon (Patato Y Totico) (3:51)
04. Sone (Cal Tjader) (3:10)
05. Vaya! Nina! (Go! Baby!) (Machito And His Orchestra) (2:55)
06. Oran (Cal Tjader) (4:00)
07. Llora Timbero (Machito And His Orchestra) (3:12)
08. Paunetto's Point (Cal Tjader) (3:07)
09. Almendra (Chico O'Farrill And His Orchestra) (2:40)
10. Isla Verde (Noro Morales And His Orchestra) (2:38)
11. Mambo Is Here To Stay (Machito And His Orchestra) (3:08)
12. Ritmo Uni (Cal Tjader And Eddie Palmieri) (3:52)
13. Peanut Vendor (Noro Morales And His Orchestra) (3:05)
14. Arrollando (Machito And His Orchestra) (2:33)
15. Somewhere In The Night (Cal Tjader) (3:16)
16. Elation (Willie Bobo) (3:49)
 
 
Лог создания рипа
Exact Audio Copy V0.99 prebeta 5 from 4. May 2009
EAC extraction logfile from 4. May 2010, 11:07
Various Artists / More Than Mambo: The Introduction to Afro-Cuban Jazz (Cd 2)
Used drive : HL-DT-STDVD-RAM GH22NP20 Adapter: 1 ID: 1
Read mode : Secure
Utilize accurate stream : Yes
Defeat audio cache : Yes
Make use of C2 pointers : No
Read offset correction : 102
Overread into Lead-In and Lead-Out : No
Fill up missing offset samples with silence : Yes
Delete leading and trailing silent blocks : No
Null samples used in CRC calculations : Yes
Used interface : Native Win32 interface for Win NT & 2000
Used output format : Internal WAV Routines
Sample format : 44.100 Hz; 16 Bit; Stereo
TOC of the extracted CD
Track | Start | Length | Start sector | End sector
---------------------------------------------------------
1 | 0:00.00 | 2:03.70 | 0 | 9294
2 | 2:03.70 | 3:56.65 | 9295 | 27059
3 | 6:00.60 | 3:51.20 | 27060 | 44404
4 | 9:52.05 | 3:09.70 | 44405 | 58649
5 | 13:02.00 | 2:55.03 | 58650 | 71777
6 | 15:57.03 | 4:00.07 | 71778 | 89784
7 | 19:57.10 | 3:11.63 | 89785 | 104172
8 | 23:08.73 | 3:07.25 | 104173 | 118222
9 | 26:16.23 | 2:39.72 | 118223 | 130219
10 | 28:56.20 | 2:37.55 | 130220 | 142049
11 | 31:34.00 | 3:07.58 | 142050 | 156132
12 | 34:41.58 | 3:52.15 | 156133 | 173547
13 | 38:33.73 | 3:05.12 | 173548 | 187434
14 | 41:39.10 | 2:32.55 | 187435 | 198889
15 | 44:11.65 | 3:16.05 | 198890 | 213594
16 | 47:27.70 | 3:49.05 | 213595 | 230774
Range status and errors
Selected range
Filename C:\Documents and Settings\Riccardo\Desktop\R\V.A. - More than Mambo\V.A. - More Than Mambo-The Introduction to Afro-Cuban Jazz [Cd 2].wav
Peak level 100.0 %
Range quality 100.0 %
Test CRC DFFC0433
Copy CRC DFFC0433
Copy OK
No errors occurred
End of status report
 
Содержание индексной карты (.CUE)
REM GENRE Afro-Cuban Jazz
REM DATE 1995
REM DISCID F90C0510
REM COMMENT ExactAudioCopy v0.99pb5
CATALOG 0731452790323
PERFORMER "Various"
TITLE "More Than Mambo: The Introduction To Afro-Cuban Jazz (disc 2)"
FILE "VA - More Than Mambo (disc 2).flac" WAVE
TRACK 01 AUDIO
TITLE "Tambo"
PERFORMER "Miguelito Valdes"
ISRC USPR36702778
INDEX 01 00:00:00
TRACK 02 AUDIO
TITLE "It Don't End (Nao Se Acabou)"
PERFORMER "Cal Tjader"
ISRC USPR36602763
INDEX 00 02:02:53
INDEX 01 02:03:70
TRACK 03 AUDIO
TITLE "Ingrato Corazon"
PERFORMER "Patato Y Totico"
ISRC USPR36702779
INDEX 00 05:59:18
INDEX 01 06:00:60
INDEX 02 07:34:38
TRACK 04 AUDIO
TITLE "Sone"
PERFORMER "Cal Tjader"
ISRC USPR36205153
INDEX 00 09:49:53
INDEX 01 09:52:05
TRACK 05 AUDIO
TITLE "Vaya! Nina! (Go! Baby!)"
PERFORMER "Machito And His Orchestra"
ISRC USPR34902081
INDEX 00 13:00:35
INDEX 01 13:02:00
TRACK 06 AUDIO
TITLE "Oran"
PERFORMER "Cal Tjader"
ISRC USPR36602764
INDEX 00 15:55:53
INDEX 01 15:57:03
TRACK 07 AUDIO
TITLE "Llora Timbero"
PERFORMER "Machito And His Orchestra"
ISRC USPR34902099
INDEX 00 19:55:25
INDEX 01 19:57:10
TRACK 08 AUDIO
TITLE "Paunetto's Point"
PERFORMER "Cal Tjader"
ISRC USPR36105150
INDEX 00 23:07:10
INDEX 01 23:08:73
TRACK 09 AUDIO
TITLE "Almendra"
PERFORMER "Chico O'Farrill And His Orchestra"
ISRC USPR35102082
INDEX 00 26:14:53
INDEX 01 26:16:23
TRACK 10 AUDIO
TITLE "Isla Verde"
PERFORMER "Noro Morales And His Orchestra"
ISRC USPR39506037
INDEX 00 28:54:43
INDEX 01 28:56:20
TRACK 11 AUDIO
TITLE "Mambo Is Here To Stay"
PERFORMER "Machito And His Orchestra"
ISRC USPR35002066
INDEX 00 31:31:70
INDEX 01 31:34:00
TRACK 12 AUDIO
TITLE "Ritmo Uni"
PERFORMER "Cal Tjader And Eddie Palmieri"
ISRC USPR36606035
INDEX 00 34:40:13
INDEX 01 34:41:58
TRACK 13 AUDIO
TITLE "Peanut Vendor"
PERFORMER "Noro Morales And His Orchestra"
ISRC USPR39506038
INDEX 00 38:32:43
INDEX 01 38:33:73
TRACK 14 AUDIO
TITLE "Arrollando"
PERFORMER "Machito And His Orchestra"
ISRC USPR35002098
INDEX 00 41:37:20
INDEX 01 41:39:10
TRACK 15 AUDIO
TITLE "Somewhere In The Night"
PERFORMER "Cal Tjader"
ISRC USPR36400069
INDEX 00 44:10:05
INDEX 01 44:11:65
TRACK 16 AUDIO
TITLE "Elation"
PERFORMER "Willie Bobo"
ISRC USPR36500052
INDEX 00 47:25:43
INDEX 01 47:27:70
 
AccurateRip
[CUETools log; Date: 22.03.2012 0:42:12; Version: 2.0.9]
[CTDB TOCID: 5_8bUrX2gn3vFm13gVORTW_Zwcw-] disk not present in database.
[AccurateRip ID: 001dd8af-01661ee8-f90c0510] found.
Track [ CRC ] Status
01 [15f90583] (3/3) Accurately ripped
02 [c0226545] (3/3) Accurately ripped
03 [e76f4dee] (3/3) Accurately ripped
04 [a6117b76] (2/2) Accurately ripped
05 [175d29ba] (3/3) Accurately ripped
06 [a23fd359] (3/3) Accurately ripped
07 [2b75ed0b] (3/3) Accurately ripped
08 [479f1350] (3/3) Accurately ripped
09 [d7d106a8] (2/2) Accurately ripped
10 [a16a4bd9] (2/2) Accurately ripped
11 [de4ac31e] (3/3) Accurately ripped
12 [484a6c68] (3/3) Accurately ripped
13 [c12e0c7b] (3/3) Accurately ripped
14 [703b64d3] (3/3) Accurately ripped
15 [ed836377] (2/2) Accurately ripped
16 [21c7cb79] (3/3) Accurately ripped
Track Peak [ CRC32 ] [W/O NULL] [ LOG ]
-- 100,0 [DFFC0433] [1B7236E3] CRC32
01 86,7 [5A4BD56F] [0679291A]
02 87,0 [FEF14196] [BBBB2472]
03 99,5 [0FFE5B86] [3A937741]
04 86,0 [C1DBD0E2] [EA6B6BBA]
05 100,0 [5C639FD8] [410307E8]
06 93,7 [7E8B4943] [077601C7]
07 95,1 [BFB46180] [AE5949B9]
08 100,0 [0D17B256] [F9F5CC81]
09 85,5 [F72BDC08] [8213D3AF]
10 89,0 [0FA6FC80] [A80C3692]
11 92,9 [AF787DF6] [49281E6C]
12 97,6 [A9B543C6] [3DEF9D74]
13 89,2 [A3743EAC] [C449AEB6]
14 77,5 [98F5EBDD] [4FA583E4]
15 100,0 [2942FF45] [6846BFE9]
16 74,9 [74944A2F] [42A46450]
03:15
291
Нет комментариев. Ваш будет первым!