Поиск

(Latin Jazz, Trombone) Wayne Wallace Latin Jazz Quintet - Infinity - 2008, FLAC (image+.cue), lossless

(Latin Jazz, Trombone) Wayne Wallace Latin Jazz Quintet - Infinity - 2008, FLAC (image+.cue), lossless
Треклист:
Wayne Wallace Latin Jazz Quintet – Infinity
Жанр: Latin Jazz, Trombone
Год издания: 2008
Издатель (лейбл): Patois Records
Номер по каталогу: PRCD007
Аудиокодек: FLAC (*.flac)
Тип рипа: image+.cue
Битрейт аудио: lossless
Продолжительность: 57:34
Rip by dreadbull
Наличие сканов в содержимом раздачи: да
Треклист:
01. Infinity (6:53)
02. Songo Colorado (5:12)
03. As Cores Da Menina (5:54)
04. Love Walked In (6:25)
05. Memories Of You (7:54)
06. Tba (6:03)
07. Close Your Eyes (5:54)
08. Cha-Cha De Alegria (5:36)
09. Straight Life / Mr. Clean (7:44)
Rec.: Bay Studio, Oakland, CA and Knob and Tube Studio, San Francisco, CA.
 
 
Personnel
Quintet:
Wayne Wallace - arranger, tenor & alto trombones, Wagner tuba, melodica, vocals;
David Belove - bass;
Murray Low - piano & keyboards;
Michael Spiro - congas, batá, güiro, requinto, timbales, chekeré, cuica, percussion arrangements;
Paul van Wageningen - trap drums.
Guests:
Roger Glenn - flute & vibraphone;
Jackie Ryan - vocals (#4,7);
Orlando Torriente - lead vocals (#2);
Karen Aczon, David Chaidez, Alexa Weber Morales, Jody Noble, Sakai, Ron Stallings, Sheryl Lynn Thomas - coro.
 
 
Лог создания рипа
Exact Audio Copy V1.0 beta 3 from 29. August 2011
EAC extraction logfile from 22. May 2012, 17:05
Wayne Wallace Latin Jazz Quintet / Infinity
Used drive : ASUS DRW-22B2L Adapter: 0 ID: 1
Read mode : Secure
Utilize accurate stream : Yes
Defeat audio cache : Yes
Make use of C2 pointers : No
Read offset correction : 6
Overread into Lead-In and Lead-Out : No
Fill up missing offset samples with silence : Yes
Delete leading and trailing silent blocks : No
Null samples used in CRC calculations : Yes
Used interface : Native Win32 interface for Win NT & 2000
Used output format : User Defined Encoder
Selected bitrate : 128 kBit/s
Quality : High
Add ID3 tag : Yes
Command line compressor : C:\Program Files\FLAC\flac.exe
Additional command line options : -8 -V -T "ARTIST=%artist%" -T "TITLE=%title%" -T "ALBUM=%albumtitle%" -T "DATE=%year%" -T "TRACKNUMBER=%tracknr%" -T "GENRE=%genre%" -T "PERFORMER=%albuminterpret%" -T "COMPOSER=%composer%" %haslyrics%--tag-from-file=LYRICS="%lyricsfile%"%haslyrics% -T "ALBUMARTIST=%albumartist%" -T "DISCNUMBER=%cdnumber%" -T "TOTALDISCS=%totalcds%" -T "TOTALTRACKS=%numtracks%" -T "COMMENT=%comment%" %source% -o %dest%
TOC of the extracted CD
Track | Start | Length | Start sector | End sector
---------------------------------------------------------
1 | 0:00.00 | 6:52.64 | 0 | 30963
2 | 6:52.64 | 5:12.13 | 30964 | 54376
3 | 12:05.02 | 5:53.39 | 54377 | 80890
4 | 17:58.41 | 6:25.02 | 80891 | 109767
5 | 24:23.43 | 7:54.18 | 109768 | 145335
6 | 32:17.61 | 6:03.08 | 145336 | 172568
7 | 38:20.69 | 5:53.38 | 172569 | 199081
8 | 44:14.32 | 5:35.63 | 199082 | 224269
9 | 49:50.20 | 7:43.49 | 224270 | 259043
Range status and errors
Selected range
Filename D:\Donkey Files\Wayne Wallace Latin Jazz Quintet - Infinity (2008)\Wayne Wallace - Infinity.wav
Peak level 98.8 %
Extraction speed 3.3 X
Range quality 100.0 %
Test CRC 1C899FEF
Copy CRC 1C899FEF
Copy OK
No errors occurred
AccurateRip summary
Track 1 accurately ripped (confidence 1) [832E3719] (AR v2)
Track 2 accurately ripped (confidence 1) [698634C9] (AR v2)
Track 3 accurately ripped (confidence 1) [742A75AB] (AR v2)
Track 4 accurately ripped (confidence 1) [1CA8905D] (AR v2)
Track 5 accurately ripped (confidence 1) [DEE2154F] (AR v2)
Track 6 accurately ripped (confidence 1) [53807F08] (AR v2)
Track 7 accurately ripped (confidence 1) [680D481C] (AR v2)
Track 8 accurately ripped (confidence 1) [0D14B3D9] (AR v2)
Track 9 accurately ripped (confidence 1) [A9A36C60] (AR v2)
All tracks accurately ripped
End of status report
==== Log checksum FFF36FAFB600651D9BB0CF84B90A5021DAAB3B29DB752055A46E581DC3570D0B ====
 
Содержание индексной карты (.CUE)
REM GENRE Latin Jazz
REM DATE 2008
REM DISCID 7A0D7D09
REM COMMENT ExactAudioCopy v1.0b3
PERFORMER "Wayne Wallace Latin Jazz Quintet"
TITLE "Infinity"
FILE "Wayne Wallace - Infinity.flac" WAVE
TRACK 01 AUDIO
TITLE "Infinity"
INDEX 01 00:00:00
TRACK 02 AUDIO
TITLE "Songo Colorado"
INDEX 00 06:51:18
INDEX 01 06:52:64
TRACK 03 AUDIO
TITLE "As Cores Da Menina"
INDEX 00 12:03:27
INDEX 01 12:05:02
TRACK 04 AUDIO
TITLE "Love Walked In"
INDEX 00 17:56:49
INDEX 01 17:58:41
TRACK 05 AUDIO
TITLE "Memories Of You"
INDEX 00 24:21:07
INDEX 01 24:23:43
TRACK 06 AUDIO
TITLE "TBA"
INDEX 00 32:16:02
INDEX 01 32:17:61
TRACK 07 AUDIO
TITLE "Close Your Eyes"
INDEX 00 38:19:00
INDEX 01 38:20:69
TRACK 08 AUDIO
TITLE "Cha-Cha De Alegria"
INDEX 00 44:12:42
INDEX 01 44:14:32
TRACK 09 AUDIO
TITLE "Straight Life / Mr. Clean"
INDEX 00 49:47:25
INDEX 01 49:50:20
04:13
276
Нет комментариев. Ваш будет первым!