Поиск

(Latin Jazz, Fusion, Trumpet) Ray Vega - Ray Vega - 1996, FLAC (image+.cue), lossless

(Latin Jazz, Fusion, Trumpet) Ray Vega - Ray Vega - 1996, FLAC (image+.cue), lossless
Треклист:
Ray Vega - Ray Vega Жанр: Latin Jazz
Страна-производитель диска: USA
Год издания: 1996
Издатель (лейбл): Concord Picante
Номер по каталогу: CCD-4735
Страна: USA
Аудиокодек: FLAC (*.flac)
Тип рипа: image+.cue
Битрейт аудио: lossless
Продолжительность: 58:35
Источник (релизер): собственный рип
Наличие сканов в содержимом раздачи: да
Треклист:
1. Greenhouse (Bobby Porcelli) 4:57
2. Tahluchahchah (Christopher Washburne) 7:59
3. Afternoon in Paris (John Lewis) 5:13
4. Islands (Mark Leontovich) 4:56
5. No Two People (Frank Loesser) 6:11
6. Partido Alto (José Roberto Bertrami / Alex Malheiros / Flora Purim) 6:47
7. ...It's a New York Thing (Ray Vega) 6:47
8. Alone Together (Howard Dietz / Arthur Schwartz) 7:59
9. Psalm 150 (Ray Vega) 7:46
 
Лог создания рипа
Exact Audio Copy V1.0 beta 2 from 29. April 2011
EAC extraction logfile from 6. May 2012, 17:34
Ray Vega / Ray Vega
Exact Audio Copy V1.0 beta 2 from 29. April 2011
EAC extraction logfile from 8. May 2012, 17:21
Ray Vega / Ray Vega
Used drive : _NEC DVD_RW ND-3551A Adapter: 0 ID: 0
Read mode : Secure
Utilize accurate stream : Yes
Defeat audio cache : Yes
Make use of C2 pointers : No
Read offset correction : 48
Overread into Lead-In and Lead-Out : No
Fill up missing offset samples with silence : Yes
Delete leading and trailing silent blocks : No
Null samples used in CRC calculations : Yes
Used interface : Native Win32 interface for Win NT & 2000
Used output format : User Defined Encoder
Selected bitrate : 128 kBit/s
Quality : High
Add ID3 tag : No
Command line compressor : D:\Program Files\Exact Audio Copy\Flac\flac.exe
Additional command line options : -V -8 -T "Date=%year%" -T "Genre=%genre%" %source%
TOC of the extracted CD
Track | Start | Length | Start sector | End sector
---------------------------------------------------------
1 | 0:00.00 | 4:59.00 | 0 | 22424
2 | 4:59.00 | 8:02.27 | 22425 | 58601
3 | 13:01.27 | 5:17.23 | 58602 | 82399
4 | 18:18.50 | 4:57.30 | 82400 | 104704
5 | 23:16.05 | 6:15.32 | 104705 | 132861
6 | 29:31.37 | 6:51.45 | 132862 | 163731
7 | 36:23.07 | 6:50.45 | 163732 | 194526
8 | 43:13.52 | 8:02.45 | 194527 | 230721
9 | 51:16.22 | 8:46.30 | 230722 | 270201
Range status and errors
Selected range
Filename C:\RIP\Ray Vega - Ray Vega.wav
Peak level 100.0 %
Extraction speed 2.9 X
Range quality 99.9 %
Test CRC 7A0DD472
Copy CRC 7A0DD472
Copy OK
No errors occurred
AccurateRip summary
Track 1 accurately ripped (confidence 2) [D2EACE7A] (AR v1)
Track 2 accurately ripped (confidence 2) [7B124D8C] (AR v1)
Track 3 accurately ripped (confidence 2) [76DC10E0] (AR v1)
Track 4 accurately ripped (confidence 2) [14391E8B] (AR v1)
Track 5 accurately ripped (confidence 2) [E07CB695] (AR v1)
Track 6 accurately ripped (confidence 2) [87747FCD] (AR v1)
Track 7 accurately ripped (confidence 2) [4B718E3A] (AR v1)
Track 8 accurately ripped (confidence 2) [B2B36EF8] (AR v1)
Track 9 accurately ripped (confidence 2) [245004F7] (AR v1)
All tracks accurately ripped
End of status report
==== Log checksum E6AFD393BFDB3EA1F29664230C3C74B9CC9C19BD15B595C797D773266D3A0248 ====
 
Состав
Ray Vega - arranger, flugelhorn, percussion, trumpet
Roger Byam - sax (soprano), sax (tenor)
Vince Cherico - drums, percussion
Wilson "Chembo" Corniel, Jr. - congas, percussion
John Di Martino - piano, piano (electric)
Jairo Moreno - bass (electric)
Craig Rivers - flute, piccolo, sax (tenor)
Christopher Washburne - arranger, percussion, trombone
03:13
246
Нет комментариев. Ваш будет первым!