Поиск

(Latin Jazz) Torcuato Mariano – Diary - 2004, FLAC (image+.cue), lossless

(Latin Jazz) Torcuato Mariano – Diary - 2004, FLAC (image+.cue), lossless
Треклист:
Torcuato Mariano – Diary
Жанр: Latin Jazz
Год выпуска диска: 2004
Производитель диска: Canada (215 Records)
Аудио кодек: FLAC
Тип рипа: image+.cue
Битрейт аудио: lossless
Продолжительность: 0:59:22
01. May 05:05
02. Blue Bossa 06:58
03. Paula 05:00
04. Diary 07:09
05. The Mission 03:55
06. High Frequency 05:11
07. Mariana 05:22
08. A Letter For You 06:12
09. Ship 03:50
10. Where Love Will Take 05:12
11. Sunny Days 05:24
Andre Rodrigues - Bass (Acoustic)
Armando Marcal - Percussion
Carlos Bala - Drums
Chiquinho Chagas - Accordion
Glauton Campello - Piano, Keyboards
Marcela Biasi - Vocals
Marcelo Mariano - Bass
Marcelo Martins - Flute, Sax (Soprano)
Marcos Suzano - Clay Pot
Paulinho Calazans - Keyboards, Fender Rhodes
Paulinho Loureiro - Vocals
Serginho Carvalho - Bass, Fretless Bass
Torcuato Mariano - Guitar (Acoustic), Guitar, Guitar (Electric), Keyboards, Sitar, Vocals, Sampling, Loops, Fender Rhodes, Electronic Drums, Moog Bass, Guitar (12 String Electric)
Сканы внутри
 
LOG
Exact Audio Copy V0.99 prebeta 3 from 28. July 2007
EAC extraction logfile from 22. April 2009, 15:56
Torcuato Mariano / Diary
Used drive : TSSTcorpCDDVDW SE-S204N Adapter: 6 ID: 4
Read mode : Secure
Utilize accurate stream : Yes
Defeat audio cache : Yes
Make use of C2 pointers : No
Read offset correction : 6
Overread into Lead-In and Lead-Out : No
Fill up missing offset samples with silence : Yes
Delete leading and trailing silent blocks : No
Null samples used in CRC calculations : Yes
Used interface : Installed external ASPI interface
Used output format : User Defined Encoder
Selected bitrate : 768 kBit/s
Quality : High
Add ID3 tag : No
Command line compressor : H:\Program Files\Exact Audio Copy\FLAC\FLAC.EXE
Additional command line options : -6 -V -T "ARTIST=%a" -T "TITLE=%t" -T "ALBUM=%g" -T "DATE=%y" -T "TRACKNUMBER=%n" -T "GENRE=%m" -T "COMMENT=%e" %s -o %d
TOC of the extracted CD
Track | Start | Length | Start sector | End sector
---------------------------------------------------------
1 | 0:00.00 | 5:05.06 | 0 | 22880
2 | 5:05.06 | 6:58.43 | 22881 | 54273
3 | 12:03.49 | 5:00.40 | 54274 | 76813
4 | 17:04.14 | 7:09.40 | 76814 | 109028
5 | 24:13.54 | 3:55.49 | 109029 | 126702
6 | 28:09.28 | 5:11.03 | 126703 | 150030
7 | 33:20.31 | 5:22.72 | 150031 | 174252
8 | 38:43.28 | 6:12.25 | 174253 | 202177
9 | 44:55.53 | 3:50.01 | 202178 | 219428
10 | 48:45.54 | 5:12.32 | 219429 | 242860
11 | 53:58.11 | 5:24.62 | 242861 | 267222
Range status and errors
Selected range
Filename C:\TTT\Torcuato Mariano – Diary\Torcuato Mariano - Diary.wav
Peak level 98.8 %
Range quality 100.0 %
Test CRC E2D55B4B
Copy CRC E2D55B4B
Copy OK
No errors occurred
AccurateRip summary
Track 1 not present in database
Track 2 not present in database
Track 3 not present in database
Track 4 not present in database
Track 5 not present in database
Track 6 not present in database
Track 7 not present in database
Track 8 not present in database
Track 9 not present in database
Track 10 not present in database
Track 11 not present in database
None of the tracks are present in the AccurateRip database
End of status report
Download available for power users only.
05:55
386
Нет комментариев. Ваш будет первым!