Поиск

(Ethnic Jazz) Kaulakau - Bernoiver - 2006, APE (image+.cue), lossless

Треклист:
Kaulakau - Bernoiver
Жанр: Ethnic Jazz
Год выпуска диска: 2006
Производитель диска: Spain
Аудио кодек: APE
Тип рипа: image+.cue
Битрейт аудио: lossless
Продолжительность: 55:32
Трэклист:
01. Maese 04:10
02. Viatge al no res 05:28
03. Bernoiver 06:28
04. El clatell de la Traudel 06:01
05. L'ultim 7 03:58
06. Mesу Pi 06:16
07. Toto caelo \ Cardamina 06:10
08. Olala 07:27
09. Il fischietto 09:28
Отчет ЕАС
 
скрытый текст
Exact Audio Copy V0.99 prebeta 4 from 23. January 2008
Отчёт EAC об извлечении, выполненном 13. апреля 2009, 23:37
Kaulakau / Kaulakau
Дисковод: SlimtypeDVD A DS8A1P Adapter: 1 ID: 0
Режим чтения : Достоверность
Использование точного потока : Да
Отключение кэша аудио : Да
Использование указателей C2 : Нет
Коррекция смещения при чтении : 594
Способность читать области Lead-in и Lead-out : Нет
Заполнение пропущенных сэмплов тишиной : Да
Удаление блоков с тишиной в начале и конце : Нет
При вычислениях CRC использовались нулевые сэмплы : Да
Интерфейс : Установленный внешний ASPI-интерфейс
Выходной формат : Внутренние WAV-операции
Формат сэмплов : 44.100 Гц; 16 бит; стерео
TOC извлечённого CD
Трек | Старт | Длительность | Начальный сектор | Конечный сектор
---------------------------------------------------------------------
1 | 0:00.00 | 4:10.53 | 0 | 18802
2 | 4:10.53 | 5:28.11 | 18803 | 43413
3 | 9:38.64 | 6:28.48 | 43414 | 72561
4 | 16:07.37 | 6:01.25 | 72562 | 99661
5 | 22:08.62 | 3:58.13 | 99662 | 117524
6 | 26:07.00 | 6:16.65 | 117525 | 145789
7 | 32:23.65 | 6:10.59 | 145790 | 173598
8 | 38:34.49 | 7:27.61 | 173599 | 207184
9 | 46:02.35 | 9:28.30 | 207185 | 249814
Характеристики диапазона извлечения и сообщения об ошибках
Выбранный диапазон
Имя файла D:\Image\Kaulakau - Bernoiver (2006)\Kaulakau - Kaulakau.wav
Пиковый уровень 98.9 %
Качество диапазона 100.0 %
CRC копии 88DD794C
Копирование... OK
Ошибок не произошло
Конец отчёта
Официальный сайт:
http://www.kaulakau.com
Доп. информация:
 
скрытый текст
С 11 по 14 сентября 2008 года в Кишиневе прошел XII-ой Международный фестиваль этно-джаза. Выступление Kaulakau, безусловно, стало одним из самых ярких его моментов (для меня лично, во всяком случае).
Kaulakau - таким необычным словом назвали свою группу испанские музыканты.
"Мы пришли из разных музыкальных стилей - фольклор, классика, джаз, рок, экспериментальная музыка... Создавая группу KaulaKau, мы не были заинтересованы поместить все эти стили в мешок и сплавить их, хотя это мог бы быть один из возможных пунктов отправления, но... Результат был совершенно непредсказуемым и спонтанным. Поэтому мы не можем сообщить, чем является наш музыкальный стиль... это - просто музыка Kaulakau".
Этими словами группа представляет свою музыку, а пресса пишет - "оригинально, современно, смело, необычно, свирепо, жадно, деликатно, сконцентрировано, светло... =)) Ни фолк, ни джаз: это фолк-джаз".
"Этно-джаз и не только"
Ирина Ляхова
Кишиневский обозреватель
Выпуск № 31 от 2008-09-04
http://www.ko.md/view_article.php?issue_date=2008-09-04&issue_id=596
Квартет «Kaulakau» приехал из Барселоны. Обласканные каталонским солнцем, музыканты привезли музыку своего края в несвойственных для «привычной» Испании таких… пастельных тонах, с этнической аутентичностью фразировок и темпов.
Радио России
Музыкальные программы с Л. Осиповой
http://radiorus.ru/news.html?rid=364&date=20-04-2009&id=302364
Другие раздачи с участниками Кишиневских этно-джаз фестивалей:
http://rutracker.org/forum/viewtopic.php?t=2735993
http://rutracker.org/forum/viewtopic.php?t=2362698
http://rutracker.org/forum/viewtopic.php?p=20928268
http://rutracker.org/forum/viewtopic.php?p=21932687
http://rutracker.org/forum/viewtopic.php?t=1113960 (спасибо steve walton)
http://rutracker.org/forum/viewtopic.php?t=2876584 (спасибо Valkiry)
По всем вопросам пишите личное сообщение пользователю M0p94ok.
05:56
251
Нет комментариев. Ваш будет первым!