Поиск

(Latin Jazz) Tito Puente — Oye Como Va – Mambo Y Cha Cha Cha — 1994, FLAC (tracks+.cue), lossless

Треклист:
Tito Puente — Oye Como Va – Mambo Y Cha Cha Cha
Жанр: Latin Jazz
Год выпуска диска: 1994
Производитель диска: EEC, Sarabandas srl., S.I.A.E. (CD 312)
Аудио кодек: FLAC
Тип рипа: tracks+.cue
Битрейт аудио: lossless
Продолжительность: 62:05
Треклист:
01. Oye Como Va (4:37)
02. Cao Cao Mani Picao (3:03)
03. El Cayuco (2:39)
04. Varsity Drag (2:55)
05. Mama Inez (2:27)
06. Carioca (2:57)
07. Que Sera (What Is It) (3:29)
08. Mambo Gozon (2:51)
09. Pa Los Rumberos (For Dancers) (3:27)
10. El Bajo (3:24)
11. Yambeque (3:50)
12. New Cha-Cha (3:06)
13. Mambo Beat (4:12)
14. Cha-Cha-Cha De Los Pollos (Cha-Cha For Chicks) (2:52)
15. Hong Kong Mambo (3:50)
16. Oye Mi Guaguanco (Listen To The Guaguanco) (3:39)
17. Guaguanco Margarito (3:35)
18. Elegua Chango (5:13)
   Источник:
 
Audiochecker.log
AUDIOCHECKER v2.0 beta (build 457) - by Dester - opdester@freemail.hu
~~~~~~~~~~~~~~~~~~~~~~~~~~~~~~~~~~
Started at: суббота, 10. 07. 2010. - 13:00.10
18 files found
01 -===- N:\1994. Tito Puente - Oye Como Va - Mambo Y Cha Cha Cha\01. Oye Como Va.flac
Extracted successfully
Conclusion: this track is CDDA with probability 100%
Tempfile successfully deleted.
02 -===- N:\1994. Tito Puente - Oye Como Va - Mambo Y Cha Cha Cha\02. Cao Cao Mani Picao.flac
Extracted successfully
Conclusion: this track is CDDA with probability 100%
Tempfile successfully deleted.
03 -===- N:\1994. Tito Puente - Oye Como Va - Mambo Y Cha Cha Cha\03. El Cayuco.flac
Extracted successfully
Conclusion: this track is CDDA with probability 99%
Tempfile successfully deleted.
04 -===- N:\1994. Tito Puente - Oye Como Va - Mambo Y Cha Cha Cha\04. Varsity Drag.flac
Extracted successfully
Conclusion: this track is CDDA with probability 100%
Tempfile successfully deleted.
05 -===- N:\1994. Tito Puente - Oye Como Va - Mambo Y Cha Cha Cha\05. Mama Inez.flac
Extracted successfully
Conclusion: this track is CDDA with probability 100%
Tempfile successfully deleted.
06 -===- N:\1994. Tito Puente - Oye Como Va - Mambo Y Cha Cha Cha\06. Carioca.flac
Extracted successfully
Conclusion: this track is CDDA with probability 100%
Tempfile successfully deleted.
07 -===- N:\1994. Tito Puente - Oye Como Va - Mambo Y Cha Cha Cha\07. Que Sera.flac
Extracted successfully
Conclusion: this track is CDDA with probability 100%
Tempfile successfully deleted.
08 -===- N:\1994. Tito Puente - Oye Como Va - Mambo Y Cha Cha Cha\08. Mambo Gozon.flac
Extracted successfully
Conclusion: this track is CDDA with probability 100%
Tempfile successfully deleted.
09 -===- N:\1994. Tito Puente - Oye Como Va - Mambo Y Cha Cha Cha\09. Pa Los Rumberos.flac
Extracted successfully
Conclusion: this track is CDDA with probability 100%
Tempfile successfully deleted.
10 -===- N:\1994. Tito Puente - Oye Como Va - Mambo Y Cha Cha Cha\10. El Bajo.flac
Extracted successfully
Conclusion: this track is CDDA with probability 100%
Tempfile successfully deleted.
11 -===- N:\1994. Tito Puente - Oye Como Va - Mambo Y Cha Cha Cha\11. Yambeque.flac
Extracted successfully
Conclusion: this track is CDDA with probability 100%
Tempfile successfully deleted.
12 -===- N:\1994. Tito Puente - Oye Como Va - Mambo Y Cha Cha Cha\12. New Cha-Cha.flac
Extracted successfully
Conclusion: this track is CDDA with probability 100%
Tempfile successfully deleted.
13 -===- N:\1994. Tito Puente - Oye Como Va - Mambo Y Cha Cha Cha\13. Mambo Beat.flac
Extracted successfully
Conclusion: this track is CDDA with probability 100%
Tempfile successfully deleted.
14 -===- N:\1994. Tito Puente - Oye Como Va - Mambo Y Cha Cha Cha\14. Cha-Cha-Cha De Los Pollos.flac
Extracted successfully
Conclusion: this track is CDDA with probability 100%
Tempfile successfully deleted.
15 -===- N:\1994. Tito Puente - Oye Como Va - Mambo Y Cha Cha Cha\15. Hong Kong Mambo.flac
Extracted successfully
Conclusion: this track is CDDA with probability 100%
Tempfile successfully deleted.
16 -===- N:\1994. Tito Puente - Oye Como Va - Mambo Y Cha Cha Cha\16. Oye Mi Guanguanco.flac
Extracted successfully
Conclusion: this track is CDDA with probability 100%
Tempfile successfully deleted.
17 -===- N:\1994. Tito Puente - Oye Como Va - Mambo Y Cha Cha Cha\17. Guaguanco Margarito.flac
Extracted successfully
Conclusion: this track is CDDA with probability 99%
Tempfile successfully deleted.
18 -===- N:\1994. Tito Puente - Oye Como Va - Mambo Y Cha Cha Cha\18. Elegua Chango.flac
Extracted successfully
Conclusion: this track is CDDA with probability 100%
Tempfile successfully deleted.
Finished at: суббота, 10. 07. 2010. - 13:05.37 (operation time: 0:05.26)
 
.log
Exact Audio Copy V0.99 prebeta 5 from 4. May 2009
EAC extraction logfile from 3. March 2010, 19:11
Tito Puente / Oye Como Va
Used drive : HL-DT-STDVD-RAM GH22NP20 Adapter: 1 ID: 1
Read mode : Secure
Utilize accurate stream : Yes
Defeat audio cache : Yes
Make use of C2 pointers : No
Read offset correction : 102
Overread into Lead-In and Lead-Out : No
Fill up missing offset samples with silence : Yes
Delete leading and trailing silent blocks : No
Null samples used in CRC calculations : Yes
Used interface : Installed external ASPI interface
Gap handling : Appended to previous track
Used output format : User Defined Encoder
Selected bitrate : 1024 kBit/s
Quality : High
Add ID3 tag : No
Command line compressor : C:\Program Files\Exact Audio Copy\FLAC\FLAC.EXE
Additional command line options : -3 -V -T "ARTIST=%a" -T "TITLE=%t" -T "ALBUM=%g" -T "DATE=%y" -T "TRACKNUMBER=%n" -T "GENRE=%m" -T "COMMENT=%e" %s -o %d
Use compression offset : 48
TOC of the extracted CD
Track | Start | Length | Start sector | End sector
---------------------------------------------------------
1 | 0:00.00 | 4:36.42 | 0 | 20741
2 | 4:36.42 | 3:03.28 | 20742 | 34494
3 | 7:39.70 | 2:39.20 | 34495 | 46439
4 | 10:19.15 | 2:55.18 | 46440 | 59582
5 | 13:14.33 | 2:26.37 | 59583 | 70569
6 | 15:40.70 | 2:56.37 | 70570 | 83806
7 | 18:37.32 | 3:29.03 | 83807 | 99484
8 | 22:06.35 | 2:50.53 | 99485 | 112287
9 | 24:57.13 | 3:26.42 | 112288 | 127779
10 | 28:23.55 | 3:23.30 | 127780 | 143034
11 | 31:47.10 | 3:49.58 | 143035 | 160267
12 | 35:36.68 | 3:06.15 | 160268 | 174232
13 | 38:43.08 | 4:11.60 | 174233 | 193117
14 | 42:54.68 | 2:52.22 | 193118 | 206039
15 | 45:47.15 | 3:50.15 | 206040 | 223304
16 | 49:37.30 | 3:38.65 | 223305 | 239719
17 | 53:16.20 | 3:34.48 | 239720 | 255817
18 | 56:50.68 | 5:12.35 | 255818 | 279252
Track 1
Filename C:\New Folder\01. Oye Como Va.wav
Pre-gap length 0:00:02.00
Peak level 92.2 %
Track quality 100.0 %
Copy CRC FBCC474B
Cannot be verified as accurate (confidence 1) [6A8C03E3], AccurateRip returned [3BE16C0E]
Copy OK
Track 2
Filename C:\New Folder\02. Cao Cao Mani Picao.wav
Pre-gap length 0:00:04.27
Peak level 92.7 %
Track quality 100.0 %
Copy CRC BA74239A
Cannot be verified as accurate (confidence 1) [AB8F5396], AccurateRip returned [6D770AB7]
Copy OK
Track 3
Filename C:\New Folder\03. El Cayuco.wav
Pre-gap length 0:00:03.13
Peak level 94.4 %
Track quality 100.0 %
Copy CRC 9F3DD222
Cannot be verified as accurate (confidence 1) [E3009297], AccurateRip returned [EA9E08B6]
Copy OK
Track 4
Filename C:\New Folder\04. Varsity Drag.wav
Pre-gap length 0:00:03.09
Peak level 100.0 %
Track quality 100.0 %
Copy CRC E86EB6D9
Cannot be verified as accurate (confidence 1) [B3DF6E93], AccurateRip returned [D6E3397B]
Copy OK
Track 5
Filename C:\New Folder\05. Mama Inez.wav
Pre-gap length 0:00:03.10
Peak level 100.0 %
Track quality 100.0 %
Copy CRC 75D67894
Cannot be verified as accurate (confidence 1) [6C7F732A], AccurateRip returned [06078D4E]
Copy OK
Track 6
Filename C:\New Folder\06. Carioca.wav
Pre-gap length 0:00:03.37
Peak level 92.8 %
Track quality 100.0 %
Copy CRC E30E1498
Cannot be verified as accurate (confidence 1) [5D1153A2], AccurateRip returned [6C643C8A]
Copy OK
Track 7
Filename C:\New Folder\07. Que Serб.wav
Pre-gap length 0:00:03.08
Peak level 83.2 %
Track quality 100.0 %
Copy CRC 16F5812E
Cannot be verified as accurate (confidence 1) [816EAC04], AccurateRip returned [ED561C2B]
Copy OK
Track 8
Filename C:\New Folder\08. Mambo Gozуn.wav
Pre-gap length 0:00:02.68
Peak level 96.2 %
Track quality 100.0 %
Copy CRC 691EAB03
Cannot be verified as accurate (confidence 1) [5F5FAFB2], AccurateRip returned [4F28C1DB]
Copy OK
Track 9
Filename C:\New Folder\09. Pб Los Rumberos.wav
Pre-gap length 0:00:02.68
Peak level 90.8 %
Track quality 99.9 %
Copy CRC 1969CE21
Cannot be verified as accurate (confidence 1) [9EB5DACF], AccurateRip returned [499AB432]
Copy OK
Track 10
Filename C:\New Folder\10. El Bajo.wav
Pre-gap length 0:00:03.00
Peak level 79.2 %
Track quality 100.0 %
Copy CRC 5D906DDB
Cannot be verified as accurate (confidence 1) [F2FD7345], AccurateRip returned [C6081422]
Copy OK
Track 11
Filename C:\New Folder\11. Yambeque.wav
Pre-gap length 0:00:03.42
Peak level 92.3 %
Track quality 99.9 %
Copy CRC 1C373616
Cannot be verified as accurate (confidence 1) [6F19D08E], AccurateRip returned [146B8BF7]
Copy OK
Track 12
Filename C:\New Folder\12. New Cha-cha.wav
Pre-gap length 0:00:03.32
Peak level 91.7 %
Track quality 100.0 %
Copy CRC F271618F
Cannot be verified as accurate (confidence 1) [38C1E3D4], AccurateRip returned [A1D3675F]
Copy OK
Track 13
Filename C:\New Folder\13. Mambo Beat.wav
Pre-gap length 0:00:03.35
Peak level 82.3 %
Track quality 100.0 %
Copy CRC 21B1DC3C
Cannot be verified as accurate (confidence 1) [450D218E], AccurateRip returned [B0FF2B75]
Copy OK
Track 14
Filename C:\New Folder\14. Cha-cha-chб de los Pollos.wav
Pre-gap length 0:00:02.53
Peak level 84.5 %
Track quality 100.0 %
Copy CRC 235ADFB1
Cannot be verified as accurate (confidence 1) [93703929], AccurateRip returned [43E3DBAC]
Copy OK
Track 15
Filename C:\New Folder\15. Hong Kong Mambo.wav
Pre-gap length 0:00:03.41
Peak level 86.7 %
Track quality 100.0 %
Copy CRC 7AB0FB4A
Cannot be verified as accurate (confidence 1) [9C62E43B], AccurateRip returned [3768E67D]
Copy OK
Track 16
Filename C:\New Folder\16. Oye Mi Guanguangco.wav
Peak level 84.9 %
Track quality 100.0 %
Copy CRC F974157C
Cannot be verified as accurate (confidence 1) [F4749FAC], AccurateRip returned [866152ED]
Copy OK
Track 17
Filename C:\New Folder\17. Guaguancу Margarito.wav
Peak level 76.0 %
Track quality 100.0 %
Copy CRC 3E386C14
Cannot be verified as accurate (confidence 1) [F0CA373C], AccurateRip returned [71DF2906]
Copy OK
Track 18
Filename C:\New Folder\18. Elegua Changу.wav
Peak level 90.9 %
Track quality 99.9 %
Copy CRC 359B4041
Cannot be verified as accurate (confidence 1) [1A6A67A5], AccurateRip returned [2D7C8446]
Copy OK
No tracks could be verified as accurate
You may have a different pressing from the one(s) in the database
No errors occurred
End of status report
 
.cue
REM GENRE Latin
REM DATE 1994
REM DISCID 1C0E8B12
REM COMMENT "ExactAudioCopy v0.99pb5"
PERFORMER "Tito Puente"
TITLE "Oye Como Va"
FILE "01. Oye Como Va.wav" WAVE
TRACK 01 AUDIO
TITLE "Oye Como Va"
PERFORMER "Tito Puente"
INDEX 01 00:00:00
TRACK 02 AUDIO
TITLE "Cao Cao Mani Picao"
PERFORMER "Tito Puente"
INDEX 00 04:32:15
FILE "02. Cao Cao Mani Picao.wav" WAVE
INDEX 01 00:00:00
TRACK 03 AUDIO
TITLE "El Cayuco"
PERFORMER "Tito Puente"
INDEX 00 03:00:15
FILE "03. El Cayuco.wav" WAVE
INDEX 01 00:00:00
TRACK 04 AUDIO
TITLE "Varsity Drag"
PERFORMER "Tito Puente"
INDEX 00 02:36:11
FILE "04. Varsity Drag.wav" WAVE
INDEX 01 00:00:00
TRACK 05 AUDIO
TITLE "Mama Inez"
PERFORMER "Tito Puente"
INDEX 00 02:52:08
FILE "05. Mama Inez.wav" WAVE
INDEX 01 00:00:00
TRACK 06 AUDIO
TITLE "Carioca"
PERFORMER "Tito Puente"
INDEX 00 02:23:00
FILE "06. Carioca.wav" WAVE
INDEX 01 00:00:00
TRACK 07 AUDIO
TITLE "Que Serб"
PERFORMER "Tito Puente"
INDEX 00 02:53:29
FILE "07. Que Serб.wav" WAVE
INDEX 01 00:00:00
TRACK 08 AUDIO
TITLE "Mambo Gozуn"
PERFORMER "Tito Puente"
INDEX 00 03:26:10
FILE "08. Mambo Gozуn.wav" WAVE
INDEX 01 00:00:00
TRACK 09 AUDIO
TITLE "Pб Los Rumberos"
PERFORMER "Tito Puente"
INDEX 00 02:47:60
FILE "09. Pб Los Rumberos.wav" WAVE
INDEX 01 00:00:00
TRACK 10 AUDIO
TITLE "El Bajo"
PERFORMER "Tito Puente"
INDEX 00 03:23:42
FILE "10. El Bajo.wav" WAVE
INDEX 01 00:00:00
TRACK 11 AUDIO
TITLE "Yambeque"
PERFORMER "Tito Puente"
INDEX 00 03:19:63
FILE "11. Yambeque.wav" WAVE
INDEX 01 00:00:00
TRACK 12 AUDIO
TITLE "New Cha-cha"
PERFORMER "Tito Puente"
INDEX 00 03:46:26
FILE "12. New Cha-cha.wav" WAVE
INDEX 01 00:00:00
TRACK 13 AUDIO
TITLE "Mambo Beat"
PERFORMER "Tito Puente"
INDEX 00 03:02:55
FILE "13. Mambo Beat.wav" WAVE
INDEX 01 00:00:00
TRACK 14 AUDIO
TITLE "Cha-cha-chб de los Pollos"
PERFORMER "Tito Puente"
INDEX 00 04:09:07
FILE "14. Cha-cha-chб de los Pollos.wav" WAVE
INDEX 01 00:00:00
TRACK 15 AUDIO
TITLE "Hong Kong Mambo"
PERFORMER "Tito Puente"
INDEX 00 02:48:56
FILE "15. Hong Kong Mambo.wav" WAVE
INDEX 01 00:00:00
FILE "16. Oye Mi Guanguangco.wav" WAVE
TRACK 16 AUDIO
TITLE "Oye Mi Guanguangco"
PERFORMER "Tito Puente"
INDEX 01 00:00:00
FILE "17. Guaguancу Margarito.wav" WAVE
TRACK 17 AUDIO
TITLE "Guaguancу Margarito"
PERFORMER "Tito Puente"
INDEX 01 00:00:00
FILE "18. Elegua Changу.wav" WAVE
TRACK 18 AUDIO
TITLE "Elegua Changу"
PERFORMER "Tito Puente"
INDEX 01 00:00:00
   :arrow: Мои раздачи на трекере
16:49
387
Нет комментариев. Ваш будет первым!