Поиск

(Latin Jazz) Tito Puente And His Orchestra — Cuban Carnival (1956) — 1990, FLAC (image+.cue), lossless

Треклист:
Tito Puente And His Orchestra — Cuban Carnival (1956)
Жанр: Latin Jazz
Год выпуска диска: 1990
Производитель диска: USA, BMG (BL2 2349)
Аудио кодек: FLAC
Тип рипа: image+.cue
Битрейт аудио: lossless
Продолжительность: 36:40
Треклист:
01. Elegua Chango (5:15)
02. Cual Es La Idea (What's The Idea) (3:22)
03. Pa' Los Rumberos (For Dancers) (3:24)
04. Que Sera (What Is It) (3:27)
05. Oye Mi Guaguanco (3:37)
06. Yambeque (3:48)
07. Happy Cha-Cha-Cha (2:36)
08. Mambo Buda (2:55)
09. Cha-Cha Cha De Los Pollos (Cha-Cha For Chicks) (2:50)
10. Guaguanco Margarito (3:33)
11. Cuban Fantasy (1:55)
Сканы: 300 dpi
   Автор рипа barin99
 
Отчет ЕАС
Exact Audio Copy V0.99 prebeta 4 from 23. January 2008
EAC extraction logfile from 28. October 2009, 20:05
Tito Puente / Cuban Carnival
Used drive : HL-DT-STRW/DVD GCC-4242N Adapter: 1 ID: 0
Read mode : Secure
Utilize accurate stream : Yes
Defeat audio cache : Yes
Make use of C2 pointers : No
Read offset correction : 102
Overread into Lead-In and Lead-Out : No
Fill up missing offset samples with silence : Yes
Delete leading and trailing silent blocks : No
Null samples used in CRC calculations : Yes
Used interface : Native Win32 interface for Win NT & 2000
Used output format : Internal WAV Routines
Sample format : 44.100 Hz; 16 Bit; Stereo
TOC of the extracted CD
Track | Start | Length | Start sector | End sector
---------------------------------------------------------
1 | 0:00.32 | 5:14.38 | 32 | 23619
2 | 5:14.70 | 3:21.42 | 23620 | 38736
3 | 8:36.37 | 3:23.70 | 38737 | 54031
4 | 12:00.32 | 3:26.53 | 54032 | 69534
5 | 15:27.10 | 3:36.72 | 69535 | 85806
6 | 19:04.07 | 3:47.50 | 85807 | 102881
7 | 22:51.57 | 2:36.25 | 102882 | 114606
8 | 25:28.07 | 2:55.10 | 114607 | 127741
9 | 28:23.17 | 2:49.38 | 127742 | 140454
10 | 31:12.55 | 3:32.47 | 140455 | 156401
11 | 34:45.27 | 1:54.68 | 156402 | 165019
Range status and errors
Selected range
Filename C:\_\EAC_Out\Out\Tito Puente - Cuban Carnival\Tito Puente - Cuban Carnival.wav
Peak level 83.5 %
Range quality 99.9 %
Copy CRC D11796C9
Copy OK
No errors occurred
AccurateRip summary
Track 1 not present in database
Track 2 not present in database
Track 3 not present in database
Track 4 not present in database
Track 5 not present in database
Track 6 not present in database
Track 7 not present in database
Track 8 not present in database
Track 9 not present in database
Track 10 not present in database
Track 11 not present in database
None of the tracks are present in the AccurateRip database
End of status report
   :arrow: Мои раздачи на трекере
15:48
245
Нет комментариев. Ваш будет первым!