Поиск

(Latin Jazz) Tito Puente And His Latin Ensemble - Sensacion (1986) - 1990, FLAC (image+.cue), lossless

(Latin Jazz) Tito Puente And His Latin Ensemble - Sensacion (1986) - 1990, FLAC (image+.cue), lossless
Треклист:
Tito Puente And His Latin Ensemble – Sensacion (1986)
Жанр: Latin Jazz
Год издания: 1990
Издатель (лейбл): Concord Picante
Номер по каталогу: CCD-4301
Аудиокодек: FLAC (*.flac)
Тип рипа: image+.cue
Битрейт аудио: lossless
Продолжительность: 41:19
Rip by dreadbull
Сканов нет
Треклист:
01. Fiesta A La King (5:50)
02. Guajira For Cal (4:57)
03. 'Round Midnight (2:44)
04. Que Sensacion (6:49)
05. Jordu (3:35)
06. Contigo En La Distancia (4:30)
07. Morning (6:37)
08. Spain (6:17)
 
 
Лог создания рипа
EAC extraction logfile from 24. August 2008, 23:41 for CD
Tito Puente / Sensacion
Used drive : PLEXTOR DVDR PX-750A Adapter: 0 ID: 1
Read mode : Secure with NO C2, accurate stream, disable cache
Read offset correction : 102
Overread into Lead-In and Lead-Out : No
Used output format : Internal WAV Routines
44.100 Hz; 16 Bit; Stereo
Other options :
Fill up missing offset samples with silence : Yes
Delete leading and trailing silent blocks : No
Installed external ASPI interface
Range status and errors
Selected range
Filename E:\Donkey Files\Tito Puente & his Latin Ensemble - Sensation (1986, Concord Picante) [eac-ape]\CDImage.wav
Peak level 100.0 %
Range quality 100.0 %
CRC 8E073022
Copy OK
No errors occured
End of status report
 
Содержание индексной карты (.CUE)
REM GENRE Latin Jazz
REM DATE 1986
PERFORMER "Tito Puente & His Latin Ensemble"
TITLE "Sensacion"
FILE "Tito Puente - Sensacion.flac" WAVE
TRACK 01 AUDIO
TITLE "Fiesta A La King"
PERFORMER "Tito Puente & His Latin Ensemble"
ISRC 000000000000
INDEX 01 00:00:00
TRACK 02 AUDIO
TITLE "Guajira For Cal"
PERFORMER "Tito Puente & His Latin Ensemble"
ISRC 000000000000
INDEX 00 05:46:35
INDEX 01 05:50:12
TRACK 03 AUDIO
TITLE "'Round Midnight"
PERFORMER "Tito Puente & His Latin Ensemble"
ISRC 000000000000
INDEX 00 10:44:10
INDEX 01 10:47:12
TRACK 04 AUDIO
TITLE "Que Sensacion"
PERFORMER "Tito Puente & His Latin Ensemble"
ISRC 000000000000
INDEX 00 13:28:60
INDEX 01 13:31:12
TRACK 05 AUDIO
TITLE "Jordu"
PERFORMER "Tito Puente & His Latin Ensemble"
ISRC 000000000000
INDEX 00 20:17:30
INDEX 01 20:20:12
TRACK 06 AUDIO
TITLE "Contigo En La Distancia"
PERFORMER "Tito Puente & His Latin Ensemble"
ISRC 000000000000
INDEX 00 23:52:20
INDEX 01 23:55:12
TRACK 07 AUDIO
TITLE "Morning"
PERFORMER "Tito Puente & His Latin Ensemble"
ISRC 000000000000
INDEX 00 28:22:57
INDEX 01 28:25:12
TRACK 08 AUDIO
TITLE "Spain"
PERFORMER "Tito Puente & His Latin Ensemble"
ISRC 000000000000
INDEX 00 34:59:10
INDEX 01 35:02:12
 
CUETools log
[CUETools log; Date: 13.01.2013 23:19:06; Version: 2.0.9]
[CTDB TOCID: E6gbWaiIH4SRKsRB_q1J_UDxd3s-] disk not present in database.
[AccurateRip ID: 000c4d7a-00520327-5709af08] found.
Track [ CRC ] Status
01 [2d270ac6] (0/1) No match
02 [308019ab] (0/1) No match
03 [55f5cadc] (0/1) No match
04 [c11687d6] (0/1) No match
05 [1325c679] (0/1) No match
06 [698e6784] (0/1) No match
07 [697889fe] (0/1) No match
08 [15fde5f7] (0/1) No match
Offsetted by 680:
01 [e53af09e] (1/1) Accurately ripped
02 [4b31ef03] (1/1) Accurately ripped
03 [06070f04] (1/1) Accurately ripped
04 [1820082e] (1/1) Accurately ripped
05 [357b2801] (1/1) Accurately ripped
06 [59f16564] (1/1) Accurately ripped
07 [bd146a4e] (1/1) Accurately ripped
08 [5b20506f] (1/1) Accurately ripped
Track Peak [ CRC32 ] [W/O NULL] [ LOG ]
-- 100,0 [8E073022] [F7325C11] CRC32
01 99,8 [C6962C01] [D65220F1]
02 100,0 [CBD7537B] [079227B2]
03 100,0 [CBFF051D] [E56392F8]
04 91,1 [38386755] [08177B89]
05 97,4 [B8A6A601] [80F684D7]
06 99,2 [6EFBE9CF] [AB3C78B1]
07 100,0 [D99D864C] [6F8B0CA7]
08 100,0 [AC9ECAED] [994872E7]
 
Состав
Tito Puente (vibraphone, timbales, percussion);
Mario Rivera (soprano & tenor saxophones, piccolo, alto flute);
Jimmy Frisaura (trumpet, flugelhorn, valve trombone);
Ray Gonzalez (trumpet, flugelhorn);
Sonny Bravo (piano);
Bobby Rodriguez (bass);
Johnny "Dandy" Rodriguez (bongos, percussion);
Jose Madera (congas, percussion);
Terry Gibbs (vibraphone).
09:46
280
Нет комментариев. Ваш будет первым!