Поиск

(Latin Jazz) Tito Puente And His Latin Ensemble - Mambo Diablo - 1985, FLAC (image+.cue), lossless

(Latin Jazz) Tito Puente And His Latin Ensemble - Mambo Diablo - 1985, FLAC (image+.cue), lossless
Треклист:
Tito Puente And His Latin Ensemble – Mambo Diablo
Жанр: Latin Jazz
Год издания: 1985
Издатель (лейбл): Concord Picante
Номер по каталогу: CCD-4283
Аудиокодек: FLAC (*.flac)
Тип рипа: image+.cue
Битрейт аудио: lossless
Продолжительность: 40:42
Rip by dreadbull
Сканов нет
Треклист:
01. Mambo Diablo (4:14)
02. Take Five (6:05)
03. Lush Life (5:43)
04. Pick Yourself Up (5:30)
05. Lullaby Of Birdland (4:20)
06. No Pienses Asi (3:57)
07. China (4:57)
08. Eastern Joy Dance (5:55)
 
 
Лог создания рипа
EAC extraction logfile from 6. April 2008, 0:27 for CD
Tito Puente / Mambo Diablo
Used drive : PLEXTOR DVDR PX-750A Adapter: 0 ID: 1
Read mode : Secure with NO C2, accurate stream, disable cache
Read offset correction : 102
Overread into Lead-In and Lead-Out : No
Used output format : Internal WAV Routines
44.100 Hz; 16 Bit; Stereo
Other options :
Fill up missing offset samples with silence : Yes
Delete leading and trailing silent blocks : No
Installed external ASPI interface
Range status and errors
Selected range
Filename E:\Donkey Files\Tito Puente - Mambo Diablo (1985, Concord) [eac-ape]\CDImage.wav
Peak level 91.7 %
Range quality 100.0 %
CRC 02CF8A4C
Copy OK
No errors occured
End of status report
 
Содержание индексной карты (.CUE)
REM GENRE Latin Jazz
REM DATE 1985
PERFORMER "Tito Puente"
TITLE "Mambo Diablo"
FILE "Tito Puente - Mambo Diablo.flac" WAVE
TRACK 01 AUDIO
TITLE "Mambo Diablo"
PERFORMER "Tito Puente"
ISRC 000000000000
INDEX 00 00:00:00
INDEX 01 00:00:37
TRACK 02 AUDIO
TITLE "Take Five"
PERFORMER "Tito Puente"
ISRC 000000000000
INDEX 00 04:11:62
INDEX 01 04:14:55
TRACK 03 AUDIO
TITLE "Lush Life"
PERFORMER "Tito Puente"
ISRC 000000000000
INDEX 00 10:17:37
INDEX 01 10:20:12
TRACK 04 AUDIO
TITLE "Pick Yourself Up"
PERFORMER "Tito Puente"
ISRC 000000000000
INDEX 00 16:00:12
INDEX 01 16:03:12
TRACK 05 AUDIO
TITLE "Lullaby Of Birdland"
PERFORMER "Tito Puente"
ISRC 000000000000
INDEX 00 21:30:67
INDEX 01 21:33:37
TRACK 06 AUDIO
TITLE "No Pienses Asi"
PERFORMER "Tito Puente"
ISRC 000000000000
INDEX 00 25:51:10
INDEX 01 25:53:55
TRACK 07 AUDIO
TITLE "China"
PERFORMER "Tito Puente"
ISRC 000000000000
INDEX 00 29:48:02
INDEX 01 29:50:50
TRACK 08 AUDIO
TITLE "Eastern Joy Dance"
PERFORMER "Tito Puente"
ISRC 000000000000
INDEX 00 34:45:55
INDEX 01 34:48:02
 
CUETools log
[CUETools log; Date: 10.01.2013 0:59:09; Version: 2.0.9]
Pregap length 00:00:37.
[CTDB TOCID: o1j23.Ce6Wyqu1q6ALwYcurM2Zs-] disk not present in database.
[AccurateRip ID: 000c98c1-0053cfe1-6c098a08] found.
Track [ CRC ] Status
01 [7f2bda4a] (00/09) No match
02 [7e5d7ae3] (00/10) No match
03 [41af7936] (00/09) No match
04 [4e6d5e97] (00/10) No match
05 [4a4c2b6d] (00/10) No match
06 [87653c3f] (00/09) No match
07 [cdf6fe83] (00/09) No match
08 [857b386c] (00/09) No match
Offsetted by -90:
01 [534c217c] (03/09) Accurately ripped
02 [03afd24d] (03/10) Accurately ripped
03 [bfd9476e] (03/09) Accurately ripped
04 [190bf693] (03/10) Accurately ripped
05 [14f11bb7] (03/10) Accurately ripped
06 [abb62dd5] (02/09) Accurately ripped
07 [e3eb069d] (03/09) Accurately ripped
08 [3ae4674a] (03/09) Accurately ripped
Offsetted by 42:
01 [71833088] (04/09) Accurately ripped
02 [a68c6329] (04/10) Accurately ripped
03 [3a025d3e] (04/09) Accurately ripped
04 [00f028bb] (04/10) Accurately ripped
05 [411043d3] (04/10) Accurately ripped
06 [100c42f9] (04/09) Accurately ripped
07 [4c40d899] (04/09) Accurately ripped
08 [b95b339e] (04/09) Accurately ripped
Offsetted by 160:
01 [3ef2782a] (02/09) Accurately ripped
02 [91595143] (03/10) Accurately ripped
03 [0c0fd1b6] (02/09) Accurately ripped
04 [ad536cd7] (03/10) Accurately ripped
05 [704363cd] (03/10) Accurately ripped
06 [46d555df] (03/09) Accurately ripped
07 [dfd361e3] (02/09) Accurately ripped
08 [d132018c] (02/09) Accurately ripped
Track Peak [ CRC32 ] [W/O NULL] [ LOG ]
-- 91,7 [02CF8A4C] [0878C28F] CRC32
01 82,1 [9A646B6A] [84555FE9]
02 82,7 [8BDA993C] [51FFEB64]
03 70,2 [ADB92947] [D3E3F849]
04 90,1 [82AE790B] [A6C5F8A6]
05 91,7 [85534BBE] [24B6B7DE]
06 67,6 [2D5B909C] [57E0EEB0]
07 82,3 [1C39488D] [F6BCACDD]
08 89,6 [2084A7D4] [B750D4C3]
 
Состав
Tito Puente - vibraphone, timbales, percussion;
Mario Rivera - soprano & tenor saxophones, flute;
Jimmy Frisaura - trumpet, flugelhorn, valve trombone;
Ray Gonzalez - trumpet, flugelhorn;
George Shearing (#5), Sonny Bravo - piano;
Bobby Rodriguez - bass;
Jose Madera - congas, percussion;
Johnny "Dandy" Rodriguez - bongos, percussion.
08:47
294
Нет комментариев. Ваш будет первым!