Поиск

(Latin Jazz, Smooth Jazz, Crossover, Flute) Herbie Mann - Brazil: Once Again / Sunbelt (2LP/1CD) - 2001, APE (image+.cue), lossless

Треклист:
Herbie Mann - Brazil: Once Again / Sunbelt

Жанр: Latin Jazz, Smooth Jazz, Crossover, Flute
Страна-производитель диска: USA
Год издания диска: 2001
Издатель (лейбл): Collectables
Номер по каталогу: 6884
Аудио кодек: APE (*.ape)
Тип рипа: image+.cue
Битрейт аудио: lossless
Продолжительность: 72:05
Наличие сканов в содержимом раздачи: да
Источник (релизер): nnm, thanks barin99

Треклист:
1. Pele
2. Oh How I Want to Love You
3. Dingui-Li Bangui
4. Lugar Comun (Common Place)
5. O Meu Amor Chorou (Cry of Love)
6. Watermelon Man
7. The Closer I Get to You
8. What Would You Do?
9. Killian
10. Dona Palmeira (Madame Palm Tree)
11. Let's Stay Together
12. Sunbelt-Mulher Rendeira (Weaver Woman)
Исполнители:
Herbie Mann - Flute, Sax (Tenor)
Lew Soloff - Trumpet
David Taylor - Trombone
Roy Ayers - Vibraphone
Richard Tee - Piano, Organ
Amauri Tristao - Guitar (Acoustic), Percussion
Tony Levin - Bass
Steve Gadd - Drums
Ralph MacDonald - Percussion
The Girls of Bahia - Voices
and others
 
Лог EAC
Exact Audio Copy V0.99 prebeta 4 from 23. January 2008
EAC extraction logfile from 10. August 2009, 20:22
Herbie Mann / Once Again / Sunbelt
Used drive : HL-DT-STRW/DVD GCC-4242N Adapter: 1 ID: 0
Read mode : Secure
Utilize accurate stream : Yes
Defeat audio cache : Yes
Make use of C2 pointers : No
Read offset correction : 102
Overread into Lead-In and Lead-Out : No
Fill up missing offset samples with silence : Yes
Delete leading and trailing silent blocks : No
Null samples used in CRC calculations : Yes
Used interface : Native Win32 interface for Win NT & 2000
Used output format : Internal WAV Routines
Sample format : 44.100 Hz; 16 Bit; Stereo
TOC of the extracted CD
Track | Start | Length | Start sector | End sector
---------------------------------------------------------
1 | 0:00.00 | 6:33.02 | 0 | 29476
2 | 6:33.02 | 9:31.35 | 29477 | 72336
3 | 16:04.37 | 4:35.24 | 72337 | 92985
4 | 20:39.61 | 4:41.57 | 92986 | 114117
5 | 25:21.43 | 7:33.07 | 114118 | 148099
6 | 32:54.50 | 7:14.33 | 148100 | 180682
7 | 40:09.08 | 5:07.11 | 180683 | 203718
8 | 45:16.19 | 5:08.41 | 203719 | 226859
9 | 50:24.60 | 5:17.34 | 226860 | 250668
10 | 55:42.19 | 6:24.28 | 250669 | 279496
11 | 62:06.47 | 4:57.18 | 279497 | 301789
12 | 67:03.65 | 5:00.57 | 301790 | 324346
Range status and errors
Selected range
Filename C:\_\EAC_Out\Out\Herbie Mann - Once Again Sunbelt\Herbie Mann - Once Again Sunbelt.wav
Peak level 100.0 %
Range quality 100.0 %
Copy CRC 0F429F87
Copy OK
No errors occurred
AccurateRip summary
Track 1 accurately ripped (confidence 3) [B010DD80]
Track 2 accurately ripped (confidence 3) [9C46533A]
Track 3 accurately ripped (confidence 3) [25962841]
Track 4 accurately ripped (confidence 3) [DC73DE10]
Track 5 accurately ripped (confidence 3) [F6F0ED48]
Track 6 accurately ripped (confidence 3) [5A589CD8]
Track 7 accurately ripped (confidence 3) [76DFA519]
Track 8 accurately ripped (confidence 3) [8E15626F]
Track 9 accurately ripped (confidence 3) [EE5B4E52]
Track 10 accurately ripped (confidence 3) [3FEBA730]
Track 11 accurately ripped (confidence 3) [BEF02962]
Track 12 accurately ripped (confidence 3) [FEFCE102]
All tracks accurately ripped
End of status report
 
Содержание индексной карты (.CUE)
REM GENRE Latin
REM DATE 2001
REM DISCID A410E40C
REM COMMENT "ExactAudioCopy v0.99pb4"
PERFORMER "Herbie Mann"
TITLE "Once Again / Sunbelt"
FILE "Herbie Mann - Once Again Sunbelt.wav" WAVE
TRACK 01 AUDIO
TITLE "Pele"
PERFORMER "Herbie Mann"
INDEX 01 00:00:00
TRACK 02 AUDIO
TITLE "Oh How I Want To Love You"
PERFORMER "Herbie Mann"
INDEX 00 06:31:02
INDEX 01 06:33:02
TRACK 03 AUDIO
TITLE "Dingue Li Bangue"
PERFORMER "Herbie Mann"
INDEX 00 16:02:36
INDEX 01 16:04:37
TRACK 04 AUDIO
TITLE "Lugar Comum (Common Place)"
PERFORMER "Herbie Mann"
INDEX 00 20:37:61
INDEX 01 20:39:61
TRACK 05 AUDIO
TITLE "O Meu Amor Chorou (Cry Of Love)"
PERFORMER "Herbie Mann"
INDEX 00 25:19:42
INDEX 01 25:21:43
TRACK 06 AUDIO
TITLE "Watermelon Man"
PERFORMER "Herbie Mann"
INDEX 00 32:52:49
INDEX 01 32:54:50
TRACK 07 AUDIO
TITLE "The Closer I Get To You"
PERFORMER "Herbie Mann"
INDEX 00 40:07:08
INDEX 01 40:09:08
TRACK 08 AUDIO
TITLE "What Would You Do?"
PERFORMER "Herbie Mann"
INDEX 00 45:14:18
INDEX 01 45:16:19
TRACK 09 AUDIO
TITLE "Killian"
PERFORMER "Herbie Mann"
INDEX 00 50:22:59
INDEX 01 50:24:60
TRACK 10 AUDIO
TITLE "Dona Palmeira (Madame Palm Tree)"
PERFORMER "Herbie Mann"
INDEX 00 55:40:19
INDEX 01 55:42:19
TRACK 11 AUDIO
TITLE "Let's Stay Together"
PERFORMER "Herbie Mann"
INDEX 00 62:04:46
INDEX 01 62:06:47
TRACK 12 AUDIO
TITLE "Sunbelt - Mulher Rendeira (Weaver Woman)"
PERFORMER "Herbie Mann"
INDEX 00 67:01:65
INDEX 01 67:03:65
Об исполнителе: здесь
21:06
304
Нет комментариев. Ваш будет первым!