Поиск

(Latin Jazz, Bossa Nova, Easy Listening) VA - Brazil Bossa Beat! Bossa Nova And The Story Of Elenco Records, Brazil - 2011, FLAC (tracks+.cue) lossless

(Latin Jazz, Bossa Nova, Easy Listening) VA - Brazil Bossa Beat! Bossa Nova And The Story Of Elenco Records, Brazil - 2011, FLAC (tracks+.cue) lossless
Треклист:
BRAZIL BOSSA BEAT!
Bossa Nova And The Story Of Elenco Records Жанр: Latin Jazz, Bossa Nova, Easy Listening
Издатель (лейбл):: Soul Jazz Records
Год издания диска: 2011
Аудио кодек: FLAC (*.flac)
Тип рипа: tracks+.cue
Битрейт аудио: lossless
Продолжительность: 63:32
Источник (релизер): artmuss
Наличие сканов в содержимом раздачи: нет
Треклист:
01. Edu Lobo - Resolucao 2:10
02. Baden Powell - Consolocao 2:28
03. Quarteto Em Cy - O Canto De Ossanha 3:01
04. Sergio Ricardo - A Fabrica 1:50
05. Edu Lobo - Zanzibar 3:14
06. Vinicius And Odetta - Berimbau 3:11
07. Mpb-4 - Beco Do Mota 3:42
08. Roberto Menescal - Cinco Por Oito 1:36
09. Nara Leao - Maria Noite 2:38
10. Sergio Ricardo - Enquanto A Tristesse Nao Vem 3:58
11. Edu Lobo - Upa Neguinho 2:21
12. Nara Leao - Nana 2:05
13. Baden Powell - Candomble 4:34
14. Edu Lobo - Reza 2:57
15. Quarteto Em Cy - Amoralina 2:13
16. Lennie Dale - Sambar De Modar 3:13
17. Nara Leao - Consolocao 2:44
18. Mpb-4 - Cravo E Canela 2:13
19. Lucio Alves - Negro 2:28
20. Baden Powell - Coisa No.1 3:04
21. Roberto Menescal - Adriana 1:57
22. Sylvia Telles - Samba De Uma Nota So 2:19
23. Mpb-4 - Sentinela 3:26
Сборник лучших песен, издававшихся на студии Elenco Records в 60-х годах.
 
Лог создания рипа
X Lossless Decoder version 20110312 (130.0)
XLD extraction logfile from 2011-03-28 15:02:22 -0700
Various Artists / Brazil Bossa Beat ! Bossa Nova And The Story Of Elenco Records, Brazil
Used drive : HL-DT-ST DVDRW GS23N (revision SB07)
Ripper mode : CDParanoia III 10.2
Disable audio cache : OK for the drive with a cache less than 2750KiB
Make use of C2 pointers : NO
Read offset correction : 667
Max retry count : 100
Gap status : Analyzed, Appended
TOC of the extracted CD
Track | Start | Length | Start sector | End sector
---------------------------------------------------------
1 | 00:00:00 | 02:10:69 | 0 | 9818
2 | 02:10:69 | 02:28:63 | 9819 | 20981
3 | 04:39:57 | 03:01:17 | 20982 | 34573
4 | 07:40:74 | 01:50:70 | 34574 | 42893
5 | 09:31:69 | 03:14:63 | 42894 | 57506
6 | 12:46:57 | 03:11:07 | 57507 | 71838
7 | 15:57:64 | 03:42:31 | 71839 | 88519
8 | 19:40:20 | 01:36:50 | 88520 | 95769
9 | 21:16:70 | 02:38:55 | 95770 | 107674
10 | 23:55:50 | 03:58:03 | 107675 | 125527
11 | 27:53:53 | 02:21:14 | 125528 | 136116
12 | 30:14:67 | 02:05:31 | 136117 | 145522
13 | 32:20:23 | 04:34:22 | 145523 | 166094
14 | 36:54:45 | 02:57:35 | 166095 | 179404
15 | 39:52:05 | 02:13:49 | 179405 | 189428
16 | 42:05:54 | 03:13:37 | 189429 | 203940
17 | 45:19:16 | 02:44:30 | 203941 | 216270
18 | 48:03:46 | 02:13:27 | 216271 | 226272
19 | 50:16:73 | 02:28:11 | 226273 | 237383
20 | 52:45:09 | 03:04:24 | 237384 | 251207
21 | 55:49:33 | 01:57:52 | 251208 | 260034
22 | 57:47:10 | 02:19:06 | 260035 | 270465
23 | 60:06:16 | 03:26:49 | 270466 | 285964
AccurateRip Summary
Disc not found in AccurateRip DB.
All Tracks
Album gain : -7.54 dB
Peak : 0.966064
Statistics
Read error : 0
Skipped (treated as error) : 0
Edge jitter error (maybe fixed) : 0
Atom jitter error (maybe fixed) : 1
Drift error (maybe fixed) : 0
Dropped bytes error (maybe fixed) : 0
Duplicated bytes error (maybe fixed) : 0
Track 01
Filename : /Music/Rips/Compilations - Brazil Bossa Beat ! Bossa Nova And The Story Of Elenco Records, Brazil [FLAC]/01 - Edu Lobo With The Tamba Trio (1965) Resolução.flac
Pre-gap length : 00:02:00
Track gain : -2.59 dB
Peak : 0.739227
CRC32 hash (test run) : 90036C1B
CRC32 hash : 90036C1B
CRC32 hash (skip zero) : FE64C67B
AccurateRip signature : 23931433
->Track not present in AccurateRip database.
Statistics
Read error : 0
Skipped (treated as error) : 0
Edge jitter error (maybe fixed) : 0
Atom jitter error (maybe fixed) : 0
Drift error (maybe fixed) : 0
Dropped bytes error (maybe fixed) : 0
Duplicated bytes error (maybe fixed) : 0
Inconsistency in error sectors : 0
Track 02
Filename : /Music/Rips/Compilations - Brazil Bossa Beat ! Bossa Nova And The Story Of Elenco Records, Brazil [FLAC]/02 - Baden Powell (1963) Concoloção.flac
Pre-gap length : 00:00:67
Track gain : -2.36 dB
Peak : 0.966064
CRC32 hash (test run) : 0F621AF4
CRC32 hash : 0F621AF4
CRC32 hash (skip zero) : DF74EDC2
AccurateRip signature : B8B08AB7
->Track not present in AccurateRip database.
Statistics
Read error : 0
Skipped (treated as error) : 0
Edge jitter error (maybe fixed) : 0
Atom jitter error (maybe fixed) : 0
Drift error (maybe fixed) : 0
Dropped bytes error (maybe fixed) : 0
Duplicated bytes error (maybe fixed) : 0
Inconsistency in error sectors : 0
Track 03
Filename : /Music/Rips/Compilations - Brazil Bossa Beat ! Bossa Nova And The Story Of Elenco Records, Brazil [FLAC]/03 - Quarteto Em Cy (1966) O Canto De Ossanha.flac
Pre-gap length : 00:01:16
Track gain : -8.47 dB
Peak : 0.785248
CRC32 hash (test run) : 4C7D1030
CRC32 hash : 4C7D1030
CRC32 hash (skip zero) : 2CBE02EF
AccurateRip signature : 287D44F1
->Track not present in AccurateRip database.
Statistics
Read error : 0
Skipped (treated as error) : 0
Edge jitter error (maybe fixed) : 0
Atom jitter error (maybe fixed) : 0
Drift error (maybe fixed) : 0
Dropped bytes error (maybe fixed) : 0
Duplicated bytes error (maybe fixed) : 0
Inconsistency in error sectors : 0
Track 04
Filename : /Music/Rips/Compilations - Brazil Bossa Beat ! Bossa Nova And The Story Of Elenco Records, Brazil [FLAC]/04 - SГ©rgio Ricardo (1963) A Frabrica.flac
Pre-gap length : 00:02:01
Track gain : -9.03 dB
Peak : 0.966064
CRC32 hash (test run) : E53680F7
CRC32 hash : E53680F7
CRC32 hash (skip zero) : 0656CAD2
AccurateRip signature : 135C0D81
->Track not present in AccurateRip database.
Statistics
Read error : 0
Skipped (treated as error) : 0
Edge jitter error (maybe fixed) : 0
Atom jitter error (maybe fixed) : 0
Drift error (maybe fixed) : 0
Dropped bytes error (maybe fixed) : 0
Duplicated bytes error (maybe fixed) : 0
Inconsistency in error sectors : 0
Track 05
Filename : /Music/Rips/Compilations - Brazil Bossa Beat ! Bossa Nova And The Story Of Elenco Records, Brazil [FLAC]/05 - EdГє Lobo (1970) Zanzibar.flac
Pre-gap length : 00:01:54
Track gain : -5.54 dB
Peak : 0.966064
CRC32 hash (test run) : 09681EE2
CRC32 hash : 09681EE2
CRC32 hash (skip zero) : 8118E2A5
AccurateRip signature : BB95EBCA
->Track not present in AccurateRip database.
Statistics
Read error : 0
Skipped (treated as error) : 0
Edge jitter error (maybe fixed) : 0
Atom jitter error (maybe fixed) : 0
Drift error (maybe fixed) : 0
Dropped bytes error (maybe fixed) : 0
Duplicated bytes error (maybe fixed) : 0
Inconsistency in error sectors : 0
Track 06
Filename : /Music/Rips/Compilations - Brazil Bossa Beat ! Bossa Nova And The Story Of Elenco Records, Brazil [FLAC]/06 - Vinicius De Moraes And Odette Lara (1963) Berimbau.flac
Pre-gap length : 00:01:62
Track gain : -6.66 dB
Peak : 0.831787
CRC32 hash (test run) : 8B60D6ED
CRC32 hash : 8B60D6ED
CRC32 hash (skip zero) : 702C9446
AccurateRip signature : 3E6731D9
->Track not present in AccurateRip database.
Statistics
Read error : 0
Skipped (treated as error) : 0
Edge jitter error (maybe fixed) : 0
Atom jitter error (maybe fixed) : 0
Drift error (maybe fixed) : 0
Dropped bytes error (maybe fixed) : 0
Duplicated bytes error (maybe fixed) : 0
Inconsistency in error sectors : 0
Track 07
Filename : /Music/Rips/Compilations - Brazil Bossa Beat ! Bossa Nova And The Story Of Elenco Records, Brazil [FLAC]/07 - MPB-4 (1969) Beco Do Mota.flac
Pre-gap length : 00:02:16
Track gain : -6.59 dB
Peak : 0.877838
CRC32 hash (test run) : 66B16A4E
CRC32 hash : 66B16A4E
CRC32 hash (skip zero) : B20F4489
AccurateRip signature : C1EEEB3E
->Track not present in AccurateRip database.
Statistics
Read error : 0
Skipped (treated as error) : 0
Edge jitter error (maybe fixed) : 0
Atom jitter error (maybe fixed) : 0
Drift error (maybe fixed) : 0
Dropped bytes error (maybe fixed) : 0
Duplicated bytes error (maybe fixed) : 0
Inconsistency in error sectors : 0
Track 08
Filename : /Music/Rips/Compilations - Brazil Bossa Beat ! Bossa Nova And The Story Of Elenco Records, Brazil [FLAC]/08 - Roberto Menescal E Seu Conjunto (1964) Cinco Por Oito.flac
Pre-gap length : 00:02:47
Track gain : -8.06 dB
Peak : 0.966064
CRC32 hash (test run) : 452E071A
CRC32 hash : 452E071A
CRC32 hash (skip zero) : FCD2B8F2
AccurateRip signature : 9D340139
->Track not present in AccurateRip database.
Statistics
Read error : 0
Skipped (treated as error) : 0
Edge jitter error (maybe fixed) : 0
Atom jitter error (maybe fixed) : 0
Drift error (maybe fixed) : 0
Dropped bytes error (maybe fixed) : 0
Duplicated bytes error (maybe fixed) : 0
Inconsistency in error sectors : 0
Track 09
Filename : /Music/Rips/Compilations - Brazil Bossa Beat ! Bossa Nova And The Story Of Elenco Records, Brazil [FLAC]/09 - Nara LeГЈo (1964) Maria Moita.flac
Pre-gap length : 00:02:19
Track gain : -6.28 dB
Peak : 0.966064
CRC32 hash (test run) : 0A7B412D
CRC32 hash : 0A7B412D
CRC32 hash (skip zero) : 66163DC5
AccurateRip signature : DD5AD886
->Track not present in AccurateRip database.
Statistics
Read error : 0
Skipped (treated as error) : 0
Edge jitter error (maybe fixed) : 0
Atom jitter error (maybe fixed) : 0
Drift error (maybe fixed) : 0
Dropped bytes error (maybe fixed) : 0
Duplicated bytes error (maybe fixed) : 0
Inconsistency in error sectors : 0
Track 10
Filename : /Music/Rips/Compilations - Brazil Bossa Beat ! Bossa Nova And The Story Of Elenco Records, Brazil [FLAC]/10 - SГ©rgio Ricardo (1963) Enquanto A Tristesse NГЈo Vem.flac
Pre-gap length : 00:02:25
Track gain : -7.35 dB
Peak : 0.881073
CRC32 hash (test run) : 682E9AAA
CRC32 hash : 682E9AAA
CRC32 hash (skip zero) : FFCEB7F6
AccurateRip signature : C1D4E5C9
->Track not present in AccurateRip database.
Statistics
Read error : 0
Skipped (treated as error) : 0
Edge jitter error (maybe fixed) : 0
Atom jitter error (maybe fixed) : 0
Drift error (maybe fixed) : 0
Dropped bytes error (maybe fixed) : 0
Duplicated bytes error (maybe fixed) : 0
Inconsistency in error sectors : 0
Track 11
Filename : /Music/Rips/Compilations - Brazil Bossa Beat ! Bossa Nova And The Story Of Elenco Records, Brazil [FLAC]/11 - EdГє Lobo (1967) Upa Neguinho.flac
Pre-gap length : 00:02:32
Track gain : -8.22 dB
Peak : 0.966064
CRC32 hash (test run) : 4238A318
CRC32 hash : 4238A318
CRC32 hash (skip zero) : AFA33E66
AccurateRip signature : 511AFAD2
->Track not present in AccurateRip database.
Statistics
Read error : 0
Skipped (treated as error) : 0
Edge jitter error (maybe fixed) : 0
Atom jitter error (maybe fixed) : 0
Drift error (maybe fixed) : 0
Dropped bytes error (maybe fixed) : 0
Duplicated bytes error (maybe fixed) : 0
Inconsistency in error sectors : 0
Track 12
Filename : /Music/Rips/Compilations - Brazil Bossa Beat ! Bossa Nova And The Story Of Elenco Records, Brazil [FLAC]/12 - Nara LeГЈo (1964) Nana.flac
Pre-gap length : 00:01:42
Track gain : -8.06 dB
Peak : 0.966064
CRC32 hash (test run) : 78F94C77
CRC32 hash : 78F94C77
CRC32 hash (skip zero) : 3685ACA1
AccurateRip signature : A8D99017
->Track not present in AccurateRip database.
Statistics
Read error : 0
Skipped (treated as error) : 0
Edge jitter error (maybe fixed) : 0
Atom jitter error (maybe fixed) : 0
Drift error (maybe fixed) : 0
Dropped bytes error (maybe fixed) : 0
Duplicated bytes error (maybe fixed) : 0
Inconsistency in error sectors : 0
Track 13
Filename : /Music/Rips/Compilations - Brazil Bossa Beat ! Bossa Nova And The Story Of Elenco Records, Brazil [FLAC]/13 - Baden Powell (1963) CandomblГ©.flac
Pre-gap length : 00:02:24
Track gain : -2.77 dB
Peak : 0.877228
CRC32 hash (test run) : F620A67E
CRC32 hash : F620A67E
CRC32 hash (skip zero) : 0BF5D36F
AccurateRip signature : C3B5A185
->Track not present in AccurateRip database.
Statistics
Read error : 0
Skipped (treated as error) : 0
Edge jitter error (maybe fixed) : 0
Atom jitter error (maybe fixed) : 0
Drift error (maybe fixed) : 0
Dropped bytes error (maybe fixed) : 0
Duplicated bytes error (maybe fixed) : 0
Inconsistency in error sectors : 0
Track 14
Filename : /Music/Rips/Compilations - Brazil Bossa Beat ! Bossa Nova And The Story Of Elenco Records, Brazil [FLAC]/14 - Edu Lobo With The Tamba Trio (1965) Reza.flac
Pre-gap length : 00:00:11
Track gain : -7.61 dB
Peak : 0.966064
CRC32 hash (test run) : EA51E957
CRC32 hash : EA51E957
CRC32 hash (skip zero) : FFB9B083
AccurateRip signature : 3A8C4EE0
->Track not present in AccurateRip database.
Statistics
Read error : 0
Skipped (treated as error) : 0
Edge jitter error (maybe fixed) : 0
Atom jitter error (maybe fixed) : 0
Drift error (maybe fixed) : 0
Dropped bytes error (maybe fixed) : 0
Duplicated bytes error (maybe fixed) : 0
Inconsistency in error sectors : 0
Track 15
Filename : /Music/Rips/Compilations - Brazil Bossa Beat ! Bossa Nova And The Story Of Elenco Records, Brazil [FLAC]/15 - Quarteto Em Cy (1966) Amoralina.flac
Pre-gap length : 00:02:00
Track gain : -8.08 dB
Peak : 0.966064
CRC32 hash (test run) : 915B7957
CRC32 hash : 915B7957
CRC32 hash (skip zero) : 2000A179
AccurateRip signature : F3FD32AA
->Track not present in AccurateRip database.
Statistics
Read error : 0
Skipped (treated as error) : 0
Edge jitter error (maybe fixed) : 0
Atom jitter error (maybe fixed) : 1
Drift error (maybe fixed) : 0
Dropped bytes error (maybe fixed) : 0
Duplicated bytes error (maybe fixed) : 0
Inconsistency in error sectors : 0
Track 16
Filename : /Music/Rips/Compilations - Brazil Bossa Beat ! Bossa Nova And The Story Of Elenco Records, Brazil [FLAC]/16 - Lennie Dale With The Sambalanço Trio (1963) Sambar De Mudar.flac
Pre-gap length : 00:01:53
Track gain : -8.42 dB
Peak : 0.881073
CRC32 hash (test run) : A3F141FD
CRC32 hash : A3F141FD
CRC32 hash (skip zero) : 0F793D72
AccurateRip signature : C54E3749
->Track not present in AccurateRip database.
Statistics
Read error : 0
Skipped (treated as error) : 0
Edge jitter error (maybe fixed) : 0
Atom jitter error (maybe fixed) : 0
Drift error (maybe fixed) : 0
Dropped bytes error (maybe fixed) : 0
Duplicated bytes error (maybe fixed) : 0
Inconsistency in error sectors : 0
Track 17
Filename : /Music/Rips/Compilations - Brazil Bossa Beat ! Bossa Nova And The Story Of Elenco Records, Brazil [FLAC]/17 - Nara Leão (1964) Consolação.flac
Pre-gap length : 00:00:60
Track gain : -5.36 dB
Peak : 0.828613
CRC32 hash (test run) : 9D4C3D08
CRC32 hash : 9D4C3D08
CRC32 hash (skip zero) : 9C0812D3
AccurateRip signature : A78E6D29
->Track not present in AccurateRip database.
Statistics
Read error : 0
Skipped (treated as error) : 0
Edge jitter error (maybe fixed) : 0
Atom jitter error (maybe fixed) : 0
Drift error (maybe fixed) : 0
Dropped bytes error (maybe fixed) : 0
Duplicated bytes error (maybe fixed) : 0
Inconsistency in error sectors : 0
Track 18
Filename : /Music/Rips/Compilations - Brazil Bossa Beat ! Bossa Nova And The Story Of Elenco Records, Brazil [FLAC]/18 - MPB-4 (1971) Cravo E Canela.flac
Pre-gap length : 00:01:37
Track gain : -7.37 dB
Peak : 0.929871
CRC32 hash (test run) : B8A930D7
CRC32 hash : B8A930D7
CRC32 hash (skip zero) : 723608AD
AccurateRip signature : 671BB621
->Track not present in AccurateRip database.
Statistics
Read error : 0
Skipped (treated as error) : 0
Edge jitter error (maybe fixed) : 0
Atom jitter error (maybe fixed) : 0
Drift error (maybe fixed) : 0
Dropped bytes error (maybe fixed) : 0
Duplicated bytes error (maybe fixed) : 0
Inconsistency in error sectors : 0
Track 19
Filename : /Music/Rips/Compilations - Brazil Bossa Beat ! Bossa Nova And The Story Of Elenco Records, Brazil [FLAC]/19 - LГєcio Alves (1963) Negro.flac
Pre-gap length : 00:02:35
Track gain : -4.83 dB
Peak : 0.930450
CRC32 hash (test run) : A47214B8
CRC32 hash : A47214B8
CRC32 hash (skip zero) : D7710D49
AccurateRip signature : 8639BD4F
->Track not present in AccurateRip database.
Statistics
Read error : 0
Skipped (treated as error) : 0
Edge jitter error (maybe fixed) : 0
Atom jitter error (maybe fixed) : 0
Drift error (maybe fixed) : 0
Dropped bytes error (maybe fixed) : 0
Duplicated bytes error (maybe fixed) : 0
Inconsistency in error sectors : 0
Track 20
Filename : /Music/Rips/Compilations - Brazil Bossa Beat ! Bossa Nova And The Story Of Elenco Records, Brazil [FLAC]/20 - Baden Powell (1963) Coisa NВ°1.flac
Pre-gap length : 00:02:18
Track gain : -7.45 dB
Peak : 0.966064
CRC32 hash (test run) : 57210C1C
CRC32 hash : 57210C1C
CRC32 hash (skip zero) : 330894F6
AccurateRip signature : 2858853D
->Track not present in AccurateRip database.
Statistics
Read error : 0
Skipped (treated as error) : 0
Edge jitter error (maybe fixed) : 0
Atom jitter error (maybe fixed) : 0
Drift error (maybe fixed) : 0
Dropped bytes error (maybe fixed) : 0
Duplicated bytes error (maybe fixed) : 0
Inconsistency in error sectors : 0
Track 21
Filename : /Music/Rips/Compilations - Brazil Bossa Beat ! Bossa Nova And The Story Of Elenco Records, Brazil [FLAC]/21 - Roberto Menescal E Seu Conjunto (1963) Adriana.flac
Pre-gap length : 00:01:55
Track gain : -6.39 dB
Peak : 0.895966
CRC32 hash (test run) : 8A176881
CRC32 hash : 8A176881
CRC32 hash (skip zero) : F945B24D
AccurateRip signature : CE65C92D
->Track not present in AccurateRip database.
Statistics
Read error : 0
Skipped (treated as error) : 0
Edge jitter error (maybe fixed) : 0
Atom jitter error (maybe fixed) : 0
Drift error (maybe fixed) : 0
Dropped bytes error (maybe fixed) : 0
Duplicated bytes error (maybe fixed) : 0
Inconsistency in error sectors : 0
Track 22
Filename : /Music/Rips/Compilations - Brazil Bossa Beat ! Bossa Nova And The Story Of Elenco Records, Brazil [FLAC]/22 - Sylvia Telles (1963) Samba De Uma Nota So.flac
Pre-gap length : 00:02:11
Track gain : -8.17 dB
Peak : 0.966064
CRC32 hash (test run) : 483D9609
CRC32 hash : 483D9609
CRC32 hash (skip zero) : 5D814ABD
AccurateRip signature : 19E917D7
->Track not present in AccurateRip database.
Statistics
Read error : 0
Skipped (treated as error) : 0
Edge jitter error (maybe fixed) : 0
Atom jitter error (maybe fixed) : 0
Drift error (maybe fixed) : 0
Dropped bytes error (maybe fixed) : 0
Duplicated bytes error (maybe fixed) : 0
Inconsistency in error sectors : 0
Track 23
Filename : /Music/Rips/Compilations - Brazil Bossa Beat ! Bossa Nova And The Story Of Elenco Records, Brazil [FLAC]/23 - MPB-4 (1969) Sentinela.flac
Pre-gap length : 00:02:26
Track gain : -8.07 dB
Peak : 0.966064
CRC32 hash (test run) : E8F4C8EC
CRC32 hash : E8F4C8EC
CRC32 hash (skip zero) : B5382239
AccurateRip signature : 92857D3C
->Track not present in AccurateRip database.
Statistics
Read error : 0
Skipped (treated as error) : 0
Edge jitter error (maybe fixed) : 0
Atom jitter error (maybe fixed) : 0
Drift error (maybe fixed) : 0
Dropped bytes error (maybe fixed) : 0
Duplicated bytes error (maybe fixed) : 0
Inconsistency in error sectors : 0
No errors occurred
End of status report
 
Содержание индексной карты (.CUE)
TITLE "Brazil Bossa Beat ! Bossa Nova And The Story Of Elenco Records, Brazil"
REM GENRE "Latin"
REM DISCNUMBER 1
REM TOTALDISCS 1
REM DISCID 5B0EE417
FILE "01 - Edu Lobo With The Tamba Trio (1965) Resolusao.wav" WAVE
TRACK 01 AUDIO
TITLE "Resolusao"
PERFORMER "Edu Lobo With The Tamba Trio"
SONGWRITER "Divers"
ISRC GBBCK7700171
REM DATE 1965
INDEX 01 00:00:00
TRACK 02 AUDIO
TITLE "Concolocao"
PERFORMER "Baden Powell"
SONGWRITER "Divers"
ISRC GBBCK7700172
REM DATE 1963
INDEX 00 02:10:02
FILE "02 - Baden Powell (1963) Concolocao.wav" WAVE
INDEX 01 00:00:00
TRACK 03 AUDIO
TITLE "O Canto De Ossanha"
PERFORMER "Quarteto Em Cy"
SONGWRITER "Divers"
ISRC GBBCK7700173
REM DATE 1966
INDEX 00 02:27:47
FILE "03 - Quarteto Em Cy (1966) O Canto De Ossanha.wav" WAVE
INDEX 01 00:00:00
TRACK 04 AUDIO
TITLE "A Frabrica"
PERFORMER "Sergio Ricardo"
SONGWRITER "Divers"
ISRC GBBCK7700174
REM DATE 1963
INDEX 00 02:59:16
FILE "04 - Sergio Ricardo (1963) A Frabrica.wav" WAVE
INDEX 01 00:00:00
TRACK 05 AUDIO
TITLE "Zanzibar"
PERFORMER "Edu Lobo"
SONGWRITER "Divers"
ISRC GBBCK7700175
REM DATE 1970
INDEX 00 01:49:16
FILE "05 - Edu Lobo (1970) Zanzibar.wav" WAVE
INDEX 01 00:00:00
TRACK 06 AUDIO
TITLE "Berimbau"
PERFORMER "Vinicius De Moraes And Odette Lara"
SONGWRITER "Divers"
ISRC GBBCK7700176
REM DATE 1963
INDEX 00 03:13:01
FILE "06 - Vinicius De Moraes And Odette Lara (1963) Berimbau.wav" WAVE
INDEX 01 00:00:00
TRACK 07 AUDIO
TITLE "Beco Do Mota"
PERFORMER "MPB-4"
SONGWRITER "Divers"
ISRC GBBCK7700177
REM DATE 1969
INDEX 00 03:08:66
FILE "07 - MPB-4 (1969) Beco Do Mota.wav" WAVE
INDEX 01 00:00:00
TRACK 08 AUDIO
TITLE "Cinco Por Oito"
PERFORMER "Roberto Menescal E Seu Conjunto"
SONGWRITER "Divers"
ISRC GBBCK7700178
REM DATE 1964
INDEX 00 03:39:59
FILE "08 - Roberto Menescal E Seu Conjunto (1964) Cinco Por Oito.wav" WAVE
INDEX 01 00:00:00
TRACK 09 AUDIO
TITLE "Maria Moita"
PERFORMER "Nara Leao"
SONGWRITER "Divers"
ISRC GBBCK7700179
REM DATE 1964
INDEX 00 01:34:31
FILE "09 - Nara Leao (1964) Maria Moita.wav" WAVE
INDEX 01 00:00:00
TRACK 10 AUDIO
TITLE "Enquanto A Tristesse Nao Vem"
PERFORMER "Sergio Ricardo"
SONGWRITER "Divers"
ISRC GBBCK7700180
REM DATE 1963
INDEX 00 02:36:30
FILE "10 - Sergio Ricardo (1963) Enquanto A Tristesse Nao Vem.wav" WAVE
INDEX 01 00:00:00
TRACK 11 AUDIO
TITLE "Upa Neguinho"
PERFORMER "Edu Lobo"
SONGWRITER "Divers"
ISRC GBBCK7700181
REM DATE 1967
INDEX 00 03:55:46
FILE "11 - Edu Lobo (1967) Upa Neguinho.wav" WAVE
INDEX 01 00:00:00
TRACK 12 AUDIO
TITLE "Nana"
PERFORMER "Nara Leao"
SONGWRITER "Divers"
ISRC GBBCK7700182
REM DATE 1964
INDEX 00 02:19:47
FILE "12 - Nara Leao (1964) Nana.wav" WAVE
INDEX 01 00:00:00
TRACK 13 AUDIO
TITLE "Candomble"
PERFORMER "Baden Powell"
SONGWRITER "Divers"
ISRC GBBCK7700183
REM DATE 1963
INDEX 00 02:03:07
FILE "13 - Baden Powell (1963) Candomble.wav" WAVE
INDEX 01 00:00:00
TRACK 14 AUDIO
TITLE "Reza"
PERFORMER "Edu Lobo With The Tamba Trio"
SONGWRITER "Divers"
ISRC GBBCK7700184
REM DATE 1965
INDEX 00 04:34:11
FILE "14 - Edu Lobo With The Tamba Trio (1965) Reza.wav" WAVE
INDEX 01 00:00:00
TRACK 15 AUDIO
TITLE "Amoralina"
PERFORMER "Quarteto Em Cy"
SONGWRITER "Divers"
ISRC GBBCK7700185
REM DATE 1966
INDEX 00 02:55:35
FILE "15 - Quarteto Em Cy (1966) Amoralina.wav" WAVE
INDEX 01 00:00:00
TRACK 16 AUDIO
TITLE "Sambar De Mudar"
PERFORMER "Lennie Dale With The Sambalanco Trio"
SONGWRITER "Divers"
ISRC GBBCK7700186
REM DATE 1963
INDEX 00 02:11:71
FILE "16 - Lennie Dale With The Sambalanco Trio (1963) Sambar De Mudar.wav" WAVE
INDEX 01 00:00:00
TRACK 17 AUDIO
TITLE "Consolacao"
PERFORMER "Nara Leao"
SONGWRITER "Divers"
ISRC GBBCK7700187
REM DATE 1964
INDEX 00 03:12:52
FILE "17 - Nara Leao (1964) Consolacao.wav" WAVE
INDEX 01 00:00:00
TRACK 18 AUDIO
TITLE "Cravo E Canela"
PERFORMER "MPB-4"
SONGWRITER "Divers"
ISRC GBBCK7700188
REM DATE 1971
INDEX 00 02:42:68
FILE "18 - MPB-4 (1971) Cravo E Canela.wav" WAVE
INDEX 01 00:00:00
TRACK 19 AUDIO
TITLE "Negro"
PERFORMER "Lucio Alves"
SONGWRITER "Divers"
ISRC GBBCK7700189
REM DATE 1963
INDEX 00 02:10:67
FILE "19 - Lucio Alves (1963) Negro.wav" WAVE
INDEX 01 00:00:00
TRACK 20 AUDIO
TITLE "Coisa N1"
PERFORMER "Baden Powell"
SONGWRITER "Divers"
ISRC GBBCK7700190
REM DATE 1963
INDEX 00 02:25:68
FILE "20 - Baden Powell (1963) Coisa N1.wav" WAVE
INDEX 01 00:00:00
TRACK 21 AUDIO
TITLE "Adriana"
PERFORMER "Roberto Menescal E Seu Conjunto"
SONGWRITER "Divers"
ISRC GBBCK7700191
REM DATE 1963
INDEX 00 03:02:44
FILE "21 - Roberto Menescal E Seu Conjunto (1963) Adriana.wav" WAVE
INDEX 01 00:00:00
TRACK 22 AUDIO
TITLE "Samba De Uma Nota So"
PERFORMER "Sylvia Telles"
SONGWRITER "Divers"
ISRC GBBCK7700192
REM DATE 1963
INDEX 00 01:55:41
FILE "22 - Sylvia Telles (1963) Samba De Uma Nota So.wav" WAVE
INDEX 01 00:00:00
TRACK 23 AUDIO
TITLE "Sentinela"
PERFORMER "MPB-4"
SONGWRITER "Divers"
ISRC GBBCK7700193
REM DATE 1969
INDEX 00 02:16:55
FILE "23 - MPB-4 (1969) Sentinela.wav" WAVE
INDEX 01 00:00:00
 
Лог проверки качества
01 -=- 01 - Edu Lobo With The Tamba Trio (1965) Resoluc?a?o.flac -=- ERROR
02 -=- 02 - Baden Powell (1963) Concoloc?a?o.flac -=- ERROR
03 -=- 03 - Quarteto Em Cy (1966) O Canto De Ossanha.flac -=- CDDA (100%)
04 -=- 04 - Se?rgio Ricardo (1963) A Frabrica.flac -=- ERROR
05 -=- 05 - Edu? Lobo (1970) Zanzibar.flac -=- ERROR
06 -=- 06 - Vinicius De Moraes And Odette Lara (1963) Berimbau.flac -=- CDDA (100%)
07 -=- 07 - MPB-4 (1969) Beco Do Mota.flac -=- CDDA (100%)
08 -=- 08 - Roberto Menescal E Seu Conjunto (1964) Cinco Por Oito.flac -=- CDDA (100%)
09 -=- 09 - Nara Lea?o (1964) Maria Moita.flac -=- ERROR
10 -=- 10 - Se?rgio Ricardo (1963) Enquanto A Tristesse Na?o Vem.flac -=- ERROR
11 -=- 11 - Edu? Lobo (1967) Upa Neguinho.flac -=- ERROR
12 -=- 12 - Nara Lea?o (1964) Nana.flac -=- ERROR
13 -=- 13 - Baden Powell (1963) Candomble?.flac -=- ERROR
14 -=- 14 - Edu Lobo With The Tamba Trio (1965) Reza.flac -=- CDDA (100%)
15 -=- 15 - Quarteto Em Cy (1966) Amoralina.flac -=- CDDA (99%)
16 -=- 16 - Lennie Dale With The Sambalanc?o Trio (1963) Sambar De Mudar.flac -=- ERROR
17 -=- 17 - Nara Lea?o (1964) Consolac?a?o.flac -=- ERROR
18 -=- 18 - MPB-4 (1971) Cravo E Canela.flac -=- CDDA (100%)
19 -=- 19 - Lu?cio Alves (1963) Negro.flac -=- ERROR
20 -=- 20 - Baden Powell (1963) Coisa N°1.flac -=- CDDA (100%)
21 -=- 21 - Roberto Menescal E Seu Conjunto (1963) Adriana.flac -=- CDDA (100%)
22 -=- 22 - Sylvia Telles (1963) Samba De Uma Nota So.flac -=- CDDA (100%)
23 -=- 23 - MPB-4 (1969) Sentinela.flac -=- CDDA (99%)
Summary 99,82% CDDA
130025076
Приятных впечатлений!
21:05
407
Нет комментариев. Ваш будет первым!