Поиск

(Latin Jazz) Sergio Mendes - In Person at El Matador! (1965)/Pele (1977)/Sergio Mendes' Favorite Things (1968) (2CD) (3in2) - 2001, FLAC (tracks+.cue), lossless

(Latin Jazz) Sergio Mendes - In Person at El Matador! (1965)/Pele (1977)/Sergio Mendes' Favorite Things (1968) (2CD) (3in2) - 2001, FLAC (tracks+.cue), lossless
Треклист:
Sergio Mendes - In Person at El Matador!/Pele/Sergio Mendes' Favorite Things
Жанр: Latin Jazz
Страна-производитель диска: США
Год издания: 2001
Издатель (лейбл): Collectables/Atlantic/Rhino
Номер по каталогу: COL-CD-6837
Аудиокодек: FLAC (*.flac)
Тип рипа: tracks+.cue
Битрейт аудио: lossless
Продолжительность: CD1 - 71:33; CD2 - 28:41
Источник (релизер): nicocola (what)
Наличие сканов в содержимом раздачи: да
 
Треклист
CD1:
In Person at El Matador! (1965)
01. Reza (4:52)
02. O Morro (2:38)
03. Samba Do Astronauta (3:03)
04. Tem Do De Mim (2:42)
05. Jodel (3:37)
06. Samba de Jose (1:59)
07. Noa Noa (2:48)
08. Black Orpheus Medley (6:24)
09. Arrastao (4:03)
10. Vai De Vez (3:01)
11. Caminho de Casa (2:53)
Pele (1977)
12. O Coracao Do Rei (The King's Heart) (1:37)
13. Meu Mundo E Uma Bola (Main Theme) (4:13)
14. Memorias (Memories) (1:06)
15. Nascimento (Birth) (0:32)
16. Voltando A Bauru (Back to Bauru) (2:55)
17. Cidade Grande (Big City) (Instrumental) (0:53)
18. Cidade Grande (Big City) (2:35)
19. Alma Latina (Latin Soul) (Main Theme) (3:22)
20. A Tristeza Do Adeus (The Sadness of Goodbye) (1:39)
21. A Tristeze Do Adeus (The Sadness of Goodbye) (4:27)
22. Na Bahia (In Bahia) (2:49)
23. Amor E Agressao (Love and Aggression) (3:29)
24. Meu Mundo E Uma Bola (Main Theme) (3:56)
CD2:
Sergio Mendes' Favorite Things (1968)
01. My Favorite Things (2:54)
02. Tempo Feliz (Happy Times) (2:36)
03. Ponteio (2:28)
04. Veleiro (The Sailboat) (3:21)
05. A Banda (Parade) (2:31)
06. I Say a Little Prayer (2:10)
07. Comin' Home Baby (3:05)
08. Boa Palavra (The Good Word) (3:10)
09. O Mar E Meu Chao (The Sea Is My Soil) (3:24)
10. So What's New (3:02)
 
Техническая информация
 
Лог создания рипа CD1
Exact Audio Copy V1.0 beta 3 from 29. August 2011
EAC extraction logfile from 18. September 2012, 14:37
Sergio Mendes / In Person at El Matador/Pelé
Used drive : TSSTcorpCDDVDW SE-208AB Adapter: 2 ID: 0
Read mode : Secure
Utilize accurate stream : Yes
Defeat audio cache : Yes
Make use of C2 pointers : No
Read offset correction : 6
Overread into Lead-In and Lead-Out : No
Fill up missing offset samples with silence : Yes
Delete leading and trailing silent blocks : No
Null samples used in CRC calculations : Yes
Used interface : Native Win32 interface for Win NT & 2000
Gap handling : Appended to previous track
Used output format : User Defined Encoder
Selected bitrate : 1024 kBit/s
Quality : High
Add ID3 tag : No
Command line compressor : C:\Program Files\Exact Audio Copy\Flac\flac.exe
Additional command line options : -8 -V -T "ARTIST=%artist%" -T "TITLE=%title%" -T "ALBUM=%albumtitle%" -T "DATE=%year%" -T "TRACKNUMBER=%tracknr%" -T "GENRE=%genre%" -T "PERFORMER=%albuminterpret%" -T "COMPOSER=%composer%" %haslyrics%--tag-from-file=LYRICS="%lyricsfile%"%haslyrics% -T "ALBUMARTIST=%albumartist%" -T "DISCNUMBER=%cdnumber%" -T "TOTALDISCS=%totalcds%" -T "TOTALTRACKS=%numtracks%" -T "COMMENT=%comment%" %source% -o %dest%
TOC of the extracted CD
Track | Start | Length | Start sector | End sector
---------------------------------------------------------
1 | 0:00.00 | 4:52.04 | 0 | 21903
2 | 4:52.04 | 2:37.51 | 21904 | 33729
3 | 7:29.55 | 3:02.38 | 33730 | 47417
4 | 10:32.18 | 2:41.44 | 47418 | 59536
5 | 13:13.62 | 3:36.48 | 59537 | 75784
6 | 16:50.35 | 1:59.13 | 75785 | 84722
7 | 18:49.48 | 2:47.53 | 84723 | 97300
8 | 21:37.26 | 6:23.39 | 97301 | 126064
9 | 28:00.65 | 4:03.32 | 126065 | 144321
10 | 32:04.22 | 3:00.69 | 144322 | 157890
11 | 35:05.16 | 2:52.55 | 157891 | 170845
12 | 37:57.71 | 1:37.03 | 170846 | 178123
13 | 39:34.74 | 4:12.70 | 178124 | 197093
14 | 43:47.69 | 1:06.22 | 197094 | 202065
15 | 44:54.16 | 0:31.61 | 202066 | 204451
16 | 45:26.02 | 2:54.56 | 204452 | 217557
17 | 48:20.58 | 0:53.18 | 217558 | 221550
18 | 49:14.01 | 2:35.36 | 221551 | 233211
19 | 51:49.37 | 3:22.22 | 233212 | 248383
20 | 55:11.59 | 1:38.66 | 248384 | 255799
21 | 56:50.50 | 4:27.29 | 255800 | 275853
22 | 61:18.04 | 2:49.16 | 275854 | 288544
23 | 64:07.20 | 3:28.65 | 288545 | 304209
24 | 67:36.10 | 3:55.48 | 304210 | 321882
Track 1
Filename E:\CD1-In Person at El Matador-Pelé\01 Rezza.wav
Pre-gap length 0:00:02.00
Peak level 100.0 %
Extraction speed 2.9 X
Track quality 100.0 %
Test CRC 045C39D4
Copy CRC 045C39D4
Accurately ripped (confidence 2) [61CD109D] (AR v1)
Copy OK
Track 2
Filename E:\CD1-In Person at El Matador-Pelé\02 O Morro.wav
Pre-gap length 0:00:02.00
Peak level 99.9 %
Extraction speed 2.2 X
Track quality 99.9 %
Test CRC A720E3BB
Copy CRC A720E3BB
Accurately ripped (confidence 2) [7926019B] (AR v1)
Copy OK
Track 3
Filename E:\CD1-In Person at El Matador-Pelé\03 Samba Do Astronauta.wav
Pre-gap length 0:00:02.01
Peak level 100.0 %
Extraction speed 3.1 X
Track quality 100.0 %
Test CRC A69CD8D0
Copy CRC A69CD8D0
Accurately ripped (confidence 2) [9E6A75E7] (AR v1)
Copy OK
Track 4
Filename E:\CD1-In Person at El Matador-Pelé\04 Tem Do De Mim.wav
Pre-gap length 0:00:02.00
Peak level 100.0 %
Extraction speed 3.1 X
Track quality 100.0 %
Test CRC 0DBF6819
Copy CRC 0DBF6819
Accurately ripped (confidence 2) [8EC08147] (AR v1)
Copy OK
Track 5
Filename E:\CD1-In Person at El Matador-Pelé\05 Jodel.wav
Pre-gap length 0:00:02.01
Peak level 99.8 %
Extraction speed 3.5 X
Track quality 100.0 %
Test CRC 70613AA7
Copy CRC 70613AA7
Accurately ripped (confidence 2) [A1A19070] (AR v1)
Copy OK
Track 6
Filename E:\CD1-In Person at El Matador-Pelé\06 Samba de Jose.wav
Pre-gap length 0:00:02.00
Peak level 100.0 %
Extraction speed 2.3 X
Track quality 99.9 %
Test CRC 3CBAA46C
Copy CRC 3CBAA46C
Accurately ripped (confidence 2) [77FCAB33] (AR v1)
Copy OK
Track 7
Filename E:\CD1-In Person at El Matador-Pelé\07 Noa Noa.wav
Pre-gap length 0:00:02.01
Peak level 99.9 %
Extraction speed 3.5 X
Track quality 100.0 %
Test CRC 6493B5D3
Copy CRC 6493B5D3
Accurately ripped (confidence 2) [FA700FCF] (AR v1)
Copy OK
Track 8
Filename E:\CD1-In Person at El Matador-Pelé\08 Black Orpheus Meldey- Manha de Carnaval, Batuque de Orfeu, Samba de Orfeu, A Felicidade.wav
Pre-gap length 0:00:02.00
Peak level 100.0 %
Extraction speed 4.2 X
Track quality 100.0 %
Test CRC E67E593D
Copy CRC E67E593D
Accurately ripped (confidence 2) [8370DDEA] (AR v1)
Copy OK
Track 9
Filename E:\CD1-In Person at El Matador-Pelé\09 Arrastao.wav
Pre-gap length 0:00:02.01
Peak level 100.0 %
Extraction speed 4.1 X
Track quality 100.0 %
Test CRC 8334FB26
Copy CRC 8334FB26
Accurately ripped (confidence 2) [2F12625B] (AR v1)
Copy OK
Track 10
Filename E:\CD1-In Person at El Matador-Pelé\10 Vai De Vez.wav
Pre-gap length 0:00:02.01
Peak level 100.0 %
Extraction speed 3.1 X
Track quality 99.9 %
Test CRC 21F6785E
Copy CRC 21F6785E
Accurately ripped (confidence 2) [66D2747C] (AR v1)
Copy OK
Track 11
Filename E:\CD1-In Person at El Matador-Pelé\11 Caminho de Casa.wav
Pre-gap length 0:00:02.01
Peak level 100.0 %
Extraction speed 4.1 X
Track quality 100.0 %
Test CRC 8657AB63
Copy CRC 8657AB63
Accurately ripped (confidence 2) [6441D726] (AR v1)
Copy OK
Track 12
Filename E:\CD1-In Person at El Matador-Pelé\12 O Coração Do Rei (The King's Heart).wav
Pre-gap length 0:00:02.00
Peak level 100.0 %
Extraction speed 3.7 X
Track quality 100.0 %
Test CRC 9A75950E
Copy CRC 9A75950E
Accurately ripped (confidence 2) [A9EFB0A7] (AR v1)
Copy OK
Track 13
Filename E:\CD1-In Person at El Matador-Pelé\13 Meu Mundo É Uma Bola (Main Theme) ''My World is a Ball''.wav
Pre-gap length 0:00:01.98
Peak level 100.0 %
Extraction speed 3.8 X
Track quality 99.9 %
Test CRC F13AD1EB
Copy CRC F13AD1EB
Accurately ripped (confidence 2) [BBC402A5] (AR v1)
Copy OK
Track 14
Filename E:\CD1-In Person at El Matador-Pelé\14 Memorias (Memories).wav
Pre-gap length 0:00:02.00
Peak level 65.5 %
Extraction speed 3.5 X
Track quality 100.0 %
Test CRC FC5EC36C
Copy CRC FC5EC36C
Accurately ripped (confidence 2) [116B59AC] (AR v1)
Copy OK
Track 15
Filename E:\CD1-In Person at El Matador-Pelé\15 Nascimento (Birth).wav
Pre-gap length 0:00:02.00
Peak level 78.1 %
Extraction speed 2.5 X
Track quality 100.0 %
Test CRC B421D97A
Copy CRC B421D97A
Accurately ripped (confidence 2) [CD21A22E] (AR v1)
Copy OK
Track 16
Filename E:\CD1-In Person at El Matador-Pelé\16 Voltando A Bauru (Back to Bauru).wav
Pre-gap length 0:00:02.00
Peak level 100.0 %
Extraction speed 4.5 X
Track quality 100.0 %
Test CRC 52C729E3
Copy CRC 52C729E3
Accurately ripped (confidence 2) [D63BAE7E] (AR v1)
Copy OK
Track 17
Filename E:\CD1-In Person at El Matador-Pelé\17 Cidade Grande (Big City) (Instrumental).wav
Pre-gap length 0:00:02.00
Peak level 63.3 %
Extraction speed 3.2 X
Track quality 100.0 %
Test CRC 7939F434
Copy CRC 7939F434
Accurately ripped (confidence 2) [826439A0] (AR v1)
Copy OK
Track 18
Filename E:\CD1-In Person at El Matador-Pelé\18 Cidade Grande (Big City).wav
Pre-gap length 0:00:02.01
Peak level 100.0 %
Extraction speed 4.5 X
Track quality 100.0 %
Test CRC 15231716
Copy CRC 15231716
Accurately ripped (confidence 2) [7DC88BD0] (AR v1)
Copy OK
Track 19
Filename E:\CD1-In Person at El Matador-Pelé\19 Alma Latina (Latin Soul) (Main Theme) ''My World Is a Ball''.wav
Pre-gap length 0:00:02.00
Peak level 100.0 %
Extraction speed 4.7 X
Track quality 100.0 %
Test CRC D48A38DE
Copy CRC D48A38DE
Accurately ripped (confidence 2) [D6B7501B] (AR v1)
Copy OK
Track 20
Filename E:\CD1-In Person at El Matador-Pelé\20 A Tristeza Do Adeus (The Sadness of Goodbye).wav
Pre-gap length 0:00:02.00
Peak level 100.0 %
Extraction speed 4.1 X
Track quality 100.0 %
Test CRC 176910A0
Copy CRC 176910A0
Accurately ripped (confidence 2) [4800C8B3] (AR v1)
Copy OK
Track 21
Filename E:\CD1-In Person at El Matador-Pelé\21 A Tristeze Do Adeus (The Sadness of Goodbye).wav
Pre-gap length 0:00:02.00
Peak level 100.0 %
Extraction speed 4.9 X
Track quality 100.0 %
Test CRC D6E1BF7A
Copy CRC D6E1BF7A
Accurately ripped (confidence 2) [97B94C32] (AR v1)
Copy OK
Track 22
Filename E:\CD1-In Person at El Matador-Pelé\22 Na Bahia (In Bahia).wav
Pre-gap length 0:00:02.00
Peak level 100.0 %
Extraction speed 4.6 X
Track quality 100.0 %
Test CRC A78CCD8B
Copy CRC A78CCD8B
Accurately ripped (confidence 2) [EBCEC45A] (AR v1)
Copy OK
Track 23
Filename E:\CD1-In Person at El Matador-Pelé\23 Amor É Agressão (Love and Aggression).wav
Pre-gap length 0:00:02.01
Peak level 100.0 %
Extraction speed 4.8 X
Track quality 100.0 %
Test CRC 5567881E
Copy CRC 5567881E
Accurately ripped (confidence 2) [0718E5AF] (AR v1)
Copy OK
Track 24
Filename E:\CD1-In Person at El Matador-Pelé\24 Meu Mundo É Uma Bola (Main Theme) ''My World Is a Ball''.wav
Pre-gap length 0:00:02.00
Peak level 99.9 %
Extraction speed 4.7 X
Track quality 100.0 %
Test CRC ECEAC68A
Copy CRC ECEAC68A
Accurately ripped (confidence 2) [D2D50B6E] (AR v1)
Copy OK
All tracks accurately ripped
No errors occurred
End of status report
---- CUETools DB Plugin V2.1.3
[CTDB TOCID: R1zfNdh1nYJBmTZggQ7FleJgsZc-] found, Submit result: already submitted
[eb3edf43] (1/1) Accurately ripped
==== Log checksum B8DCFD78BF9149AE44ABDCB3E91FB268AE4C44A1459DC8A1E3E912294ABF0F02 ====
 
Лог создания рипа CD2
Exact Audio Copy V1.0 beta 3 from 29. August 2011
EAC extraction logfile from 18. September 2012, 11:26
Sergio Mendes / Sergio Mendes' Favorite Things
Used drive : TSSTcorpCDDVDW SE-208AB Adapter: 2 ID: 0
Read mode : Secure
Utilize accurate stream : Yes
Defeat audio cache : Yes
Make use of C2 pointers : No
Read offset correction : 6
Overread into Lead-In and Lead-Out : No
Fill up missing offset samples with silence : Yes
Delete leading and trailing silent blocks : No
Null samples used in CRC calculations : Yes
Used interface : Native Win32 interface for Win NT & 2000
Gap handling : Appended to previous track
Used output format : User Defined Encoder
Selected bitrate : 1024 kBit/s
Quality : High
Add ID3 tag : No
Command line compressor : C:\Program Files\Exact Audio Copy\Flac\flac.exe
Additional command line options : -8 -V -T "ARTIST=%artist%" -T "TITLE=%title%" -T "ALBUM=%albumtitle%" -T "DATE=%year%" -T "TRACKNUMBER=%tracknr%" -T "GENRE=%genre%" -T "PERFORMER=%albuminterpret%" -T "COMPOSER=%composer%" %haslyrics%--tag-from-file=LYRICS="%lyricsfile%"%haslyrics% -T "ALBUMARTIST=%albumartist%" -T "DISCNUMBER=%cdnumber%" -T "TOTALDISCS=%totalcds%" -T "TOTALTRACKS=%numtracks%" -T "COMMENT=%comment%" %source% -o %dest%
TOC of the extracted CD
Track | Start | Length | Start sector | End sector
---------------------------------------------------------
1 | 0:00.00 | 2:54.11 | 0 | 13060
2 | 2:54.11 | 2:35.74 | 13061 | 24759
3 | 5:30.10 | 2:28.11 | 24760 | 35870
4 | 7:58.21 | 3:21.24 | 35871 | 50969
5 | 11:19.45 | 2:30.61 | 50970 | 62280
6 | 13:50.31 | 2:09.58 | 62281 | 72013
7 | 16:00.14 | 3:05.14 | 72014 | 85902
8 | 19:05.28 | 3:09.46 | 85903 | 100123
9 | 22:14.74 | 3:24.20 | 100124 | 115443
10 | 25:39.19 | 3:01.73 | 115444 | 129091
Track 1
Filename E:\Sergio Mendes-In Person at El Matador-Pelé-Sergio Mendes' Favorite Things-2CD-FLAC-2001\CD2-Favorite Things\01 My Favorite Things.wav
Pre-gap length 0:00:02.00
Peak level 100.0 %
Extraction speed 1.0 X
Track quality 100.0 %
Test CRC 662812A8
Copy CRC 662812A8
Accurately ripped (confidence 2) [D5EE1B6E] (AR v1)
Copy OK
Track 2
Filename E:\Sergio Mendes-In Person at El Matador-Pelé-Sergio Mendes' Favorite Things-2CD-FLAC-2001\CD2-Favorite Things\02 Tempo Feliz (Happy Times).wav
Pre-gap length 0:00:02.00
Peak level 100.0 %
Extraction speed 1.1 X
Track quality 100.0 %
Test CRC 27224D57
Copy CRC 27224D57
Accurately ripped (confidence 2) [F7AC53C9] (AR v1)
Copy OK
Track 3
Filename E:\Sergio Mendes-In Person at El Matador-Pelé-Sergio Mendes' Favorite Things-2CD-FLAC-2001\CD2-Favorite Things\03 Ponteio.wav
Pre-gap length 0:00:02.00
Peak level 100.0 %
Extraction speed 1.2 X
Track quality 100.0 %
Test CRC 65138F75
Copy CRC 65138F75
Accurately ripped (confidence 2) [9A714FAC] (AR v1)
Copy OK
Track 4
Filename E:\Sergio Mendes-In Person at El Matador-Pelé-Sergio Mendes' Favorite Things-2CD-FLAC-2001\CD2-Favorite Things\04 Veleiro (The Sailboat).wav
Pre-gap length 0:00:02.01
Peak level 100.0 %
Extraction speed 1.3 X
Track quality 100.0 %
Test CRC ED82D419
Copy CRC ED82D419
Accurately ripped (confidence 2) [47E37B37] (AR v1)
Copy OK
Track 5
Filename E:\Sergio Mendes-In Person at El Matador-Pelé-Sergio Mendes' Favorite Things-2CD-FLAC-2001\CD2-Favorite Things\05 A Banda (Parade).wav
Pre-gap length 0:00:02.00
Peak level 100.0 %
Extraction speed 1.3 X
Track quality 100.0 %
Test CRC EBC7C86B
Copy CRC EBC7C86B
Accurately ripped (confidence 2) [6F482DDD] (AR v1)
Copy OK
Track 6
Filename E:\Sergio Mendes-In Person at El Matador-Pelé-Sergio Mendes' Favorite Things-2CD-FLAC-2001\CD2-Favorite Things\06 I Say A Little Prayer.wav
Pre-gap length 0:00:02.01
Peak level 100.0 %
Extraction speed 1.1 X
Track quality 99.9 %
Test CRC BEC182DC
Copy CRC BEC182DC
Accurately ripped (confidence 2) [74778828] (AR v1)
Copy OK
Track 7
Filename E:\Sergio Mendes-In Person at El Matador-Pelé-Sergio Mendes' Favorite Things-2CD-FLAC-2001\CD2-Favorite Things\07 Comin' Home Baby.wav
Pre-gap length 0:00:02.00
Peak level 100.0 %
Extraction speed 1.5 X
Track quality 100.0 %
Test CRC C371209A
Copy CRC C371209A
Accurately ripped (confidence 2) [E5E5DBC0] (AR v1)
Copy OK
Track 8
Filename E:\Sergio Mendes-In Person at El Matador-Pelé-Sergio Mendes' Favorite Things-2CD-FLAC-2001\CD2-Favorite Things\08 Boa Palavra (The Good Word).wav
Pre-gap length 0:00:02.01
Peak level 100.0 %
Extraction speed 1.6 X
Track quality 100.0 %
Test CRC DAFA611B
Copy CRC DAFA611B
Accurately ripped (confidence 2) [2F823C6D] (AR v1)
Copy OK
Track 9
Filename E:\Sergio Mendes-In Person at El Matador-Pelé-Sergio Mendes' Favorite Things-2CD-FLAC-2001\CD2-Favorite Things\09 O Mar É Meu Châo (The Sea Is My Soil).wav
Pre-gap length 0:00:02.01
Peak level 100.0 %
Extraction speed 1.7 X
Track quality 100.0 %
Test CRC 1EE50EBE
Copy CRC 1EE50EBE
Accurately ripped (confidence 2) [0603999C] (AR v1)
Copy OK
Track 10
Filename E:\Sergio Mendes-In Person at El Matador-Pelé-Sergio Mendes' Favorite Things-2CD-FLAC-2001\CD2-Favorite Things\10 So What's New.wav
Pre-gap length 0:00:02.00
Peak level 100.0 %
Extraction speed 1.7 X
Track quality 100.0 %
Test CRC 87EB5371
Copy CRC 87EB5371
Accurately ripped (confidence 2) [9BB10A2B] (AR v1)
Copy OK
All tracks accurately ripped
No errors occurred
End of status report
---- CUETools DB Plugin V2.1.3
[CTDB TOCID: mnoWhbM6yw264mLX_WN7SF3IgHg-] disk not present in database, Submit result: mnoWhbM6yw264mLX_WN7SF3IgHg- has been uploaded
==== Log checksum EE8C9BE438C070E1CF145E5CC3849560BCF002CB7DCBE4A60B449A29A0961954 ====
 
Содержание индексной карты (.CUE) CD1
REM GENRE Jazz
REM DATE 2001
REM DISCID 6410C318
REM COMMENT "ExactAudioCopy v1.0b3"
PERFORMER "Sergio Mendes"
TITLE "In Person at El Matador!/Pele"
FILE "01 - Reza.wav" WAVE
TRACK 01 AUDIO
TITLE "Reza"
PERFORMER "Sergio Mendes"
INDEX 01 00:00:00
TRACK 02 AUDIO
TITLE "O Morro"
PERFORMER "Sergio Mendes"
INDEX 00 04:50:04
FILE "02 - O Morro.wav" WAVE
INDEX 01 00:00:00
TRACK 03 AUDIO
TITLE "Samba Do Astronauta"
PERFORMER "Sergio Mendes"
INDEX 00 02:35:50
FILE "03 - Samba Do Astronauta.wav" WAVE
INDEX 01 00:00:00
TRACK 04 AUDIO
TITLE "Tem Do De Mim"
PERFORMER "Sergio Mendes"
INDEX 00 03:00:38
FILE "04 - Tem Do De Mim.wav" WAVE
INDEX 01 00:00:00
TRACK 05 AUDIO
TITLE "Jodel"
PERFORMER "Sergio Mendes"
INDEX 00 02:39:43
FILE "05 - Jodel.wav" WAVE
INDEX 01 00:00:00
TRACK 06 AUDIO
TITLE "Samba de Jose"
PERFORMER "Sergio Mendes"
INDEX 00 03:34:48
FILE "06 - Samba de Jose.wav" WAVE
INDEX 01 00:00:00
TRACK 07 AUDIO
TITLE "Noa Noa"
PERFORMER "Sergio Mendes"
INDEX 00 01:57:12
FILE "07 - Noa Noa.wav" WAVE
INDEX 01 00:00:00
TRACK 08 AUDIO
TITLE "Black Orpheus Medley"
PERFORMER "Sergio Mendes"
INDEX 00 02:45:53
FILE "08 - Black Orpheus Medley.wav" WAVE
INDEX 01 00:00:00
TRACK 09 AUDIO
TITLE "Arrastao"
PERFORMER "Sergio Mendes"
INDEX 00 06:21:38
FILE "09 - Arrastao.wav" WAVE
INDEX 01 00:00:00
TRACK 10 AUDIO
TITLE "Vai De Vez"
PERFORMER "Sergio Mendes"
INDEX 00 04:01:31
FILE "10 - Vai De Vez.wav" WAVE
INDEX 01 00:00:00
TRACK 11 AUDIO
TITLE "Caminho de Casa"
PERFORMER "Sergio Mendes"
INDEX 00 02:58:68
FILE "11 - Caminho de Casa.wav" WAVE
INDEX 01 00:00:00
TRACK 12 AUDIO
TITLE "O Coracao Do Rei (The King's Heart)"
PERFORMER "Sergio Mendes"
INDEX 00 02:50:55
FILE "12 - O Coracao Do Rei (The King's Heart).wav" WAVE
INDEX 01 00:00:00
TRACK 13 AUDIO
TITLE "Meu Mundo E Uma Bola (Main Theme)"
PERFORMER "Sergio Mendes"
INDEX 00 01:35:04
FILE "13 - Meu Mundo E Uma Bola (Main Theme).wav" WAVE
INDEX 01 00:00:00
TRACK 14 AUDIO
TITLE "Memorias (Memories)"
PERFORMER "Sergio Mendes"
INDEX 00 04:10:70
FILE "14 - Memorias (Memories).wav" WAVE
INDEX 01 00:00:00
TRACK 15 AUDIO
TITLE "Nascimento (Birth)"
PERFORMER "Sergio Mendes"
INDEX 00 01:04:22
FILE "15 - Nascimento (Birth).wav" WAVE
INDEX 01 00:00:00
TRACK 16 AUDIO
TITLE "Voltando A Bauru (Back to Bauru)"
PERFORMER "Sergio Mendes"
INDEX 00 00:29:61
FILE "16 - Voltando A Bauru (Back to Bauru).wav" WAVE
INDEX 01 00:00:00
TRACK 17 AUDIO
TITLE "Cidade Grande (Big City) (Instrumental)"
PERFORMER "Sergio Mendes"
INDEX 00 02:52:56
FILE "17 - Cidade Grande (Big City) (Instrumental).wav" WAVE
INDEX 01 00:00:00
TRACK 18 AUDIO
TITLE "Cidade Grande (Big City)"
PERFORMER "Sergio Mendes"
INDEX 00 00:51:17
FILE "18 - Cidade Grande (Big City).wav" WAVE
INDEX 01 00:00:00
TRACK 19 AUDIO
TITLE "Alma Latina (Latin Soul) (Main Theme)"
PERFORMER "Sergio Mendes"
INDEX 00 02:33:36
FILE "19 - Alma Latina (Latin Soul) (Main Theme).wav" WAVE
INDEX 01 00:00:00
TRACK 20 AUDIO
TITLE "A Tristeza Do Adeus (The Sadness of Goodbye)"
PERFORMER "Sergio Mendes"
INDEX 00 03:20:22
FILE "20 - A Tristeza Do Adeus (The Sadness of Goodbye).wav" WAVE
INDEX 01 00:00:00
TRACK 21 AUDIO
TITLE "A Tristeze Do Adeus (The Sadness of Goodbye)"
PERFORMER "Sergio Mendes"
INDEX 00 01:36:66
FILE "21 - A Tristeze Do Adeus (The Sadness of Goodbye).wav" WAVE
INDEX 01 00:00:00
TRACK 22 AUDIO
TITLE "Na Bahia (In Bahia)"
PERFORMER "Sergio Mendes"
INDEX 00 04:25:29
FILE "22 - Na Bahia (In Bahia).wav" WAVE
INDEX 01 00:00:00
TRACK 23 AUDIO
TITLE "Amor E Agressao (Love and Aggression)"
PERFORMER "Sergio Mendes"
INDEX 00 02:47:15
FILE "23 - Amor E Agressao (Love and Aggression).wav" WAVE
INDEX 01 00:00:00
TRACK 24 AUDIO
TITLE "Meu Mundo E Uma Bola (Main Theme)"
PERFORMER "Sergio Mendes"
INDEX 00 03:26:65
FILE "24 - Meu Mundo E Uma Bola (Main Theme).wav" WAVE
INDEX 01 00:00:00
 
Содержание индексной карты (.CUE) CD2
REM GENRE Jazz
REM DATE 2001
REM DISCID 7606B90A
REM COMMENT "ExactAudioCopy v1.0b3"
PERFORMER "Sergio Mendes"
TITLE "Sergio Mendes' Favorite Things"
FILE "01 - My Favorite Things.wav" WAVE
TRACK 01 AUDIO
TITLE "My Favorite Things"
PERFORMER "Sergio Mendes"
INDEX 01 00:00:00
TRACK 02 AUDIO
TITLE "Tempo Feliz (Happy Times)"
PERFORMER "Sergio Mendes"
INDEX 00 02:52:11
FILE "02 - Tempo Feliz (Happy Times).wav" WAVE
INDEX 01 00:00:00
TRACK 03 AUDIO
TITLE "Ponteio"
PERFORMER "Sergio Mendes"
INDEX 00 02:33:74
FILE "03 - Ponteio.wav" WAVE
INDEX 01 00:00:00
TRACK 04 AUDIO
TITLE "Veleiro (The Sailboat)"
PERFORMER "Sergio Mendes"
INDEX 00 02:26:10
FILE "04 - Veleiro (The Sailboat).wav" WAVE
INDEX 01 00:00:00
TRACK 05 AUDIO
TITLE "A Banda (Parade)"
PERFORMER "Sergio Mendes"
INDEX 00 03:19:24
FILE "05 - A Banda (Parade).wav" WAVE
INDEX 01 00:00:00
TRACK 06 AUDIO
TITLE "I Say a Little Prayer"
PERFORMER "Sergio Mendes"
INDEX 00 02:28:60
FILE "06 - I Say a Little Prayer.wav" WAVE
INDEX 01 00:00:00
TRACK 07 AUDIO
TITLE "Comin' Home Baby"
PERFORMER "Sergio Mendes"
INDEX 00 02:07:58
FILE "07 - Comin' Home Baby.wav" WAVE
INDEX 01 00:00:00
TRACK 08 AUDIO
TITLE "Boa Palavra (The Good Word)"
PERFORMER "Sergio Mendes"
INDEX 00 03:03:13
FILE "08 - Boa Palavra (The Good Word).wav" WAVE
INDEX 01 00:00:00
TRACK 09 AUDIO
TITLE "O Mar E Meu Chao (The Sea Is My Soil)"
PERFORMER "Sergio Mendes"
INDEX 00 03:07:45
FILE "09 - O Mar E Meu Chao (The Sea Is My Soil).wav" WAVE
INDEX 01 00:00:00
TRACK 10 AUDIO
TITLE "So What's New"
PERFORMER "Sergio Mendes"
INDEX 00 03:22:20
FILE "10 - So What's New.wav" WAVE
INDEX 01 00:00:00
 
Отчет CUETools CD1
[CUETools log; Date: 04.05.2013 17:12:59; Version: 2.1.4]
[CTDB TOCID: R1zfNdh1nYJBmTZggQ7FleJgsZc-] found.
Track | CTDB Status
1 | (1/1) Accurately ripped
2 | (1/1) Accurately ripped
3 | (1/1) Accurately ripped
4 | (1/1) Accurately ripped
5 | (1/1) Accurately ripped
6 | (1/1) Accurately ripped
7 | (1/1) Accurately ripped
8 | (1/1) Accurately ripped
9 | (1/1) Accurately ripped
10 | (1/1) Accurately ripped
11 | (1/1) Accurately ripped
12 | (1/1) Accurately ripped
13 | (1/1) Accurately ripped
14 | (1/1) Accurately ripped
15 | (1/1) Accurately ripped
16 | (1/1) Accurately ripped
17 | (1/1) Accurately ripped
18 | (1/1) Accurately ripped
19 | (1/1) Accurately ripped
20 | (1/1) Accurately ripped
21 | (1/1) Accurately ripped
22 | (1/1) Accurately ripped
23 | (1/1) Accurately ripped
24 | (1/1) Accurately ripped
[AccurateRip ID: 003f9a3f-0436f609-6410c318] found.
Track [ CRC | V2 ] Status
01 [61cd109d|b1b80f9f] (2+0/2) Accurately ripped
02 [7926019b|1878ee24] (2+0/2) Accurately ripped
03 [9e6a75e7|e0983f9a] (2+0/2) Accurately ripped
04 [8ec08147|8ea81293] (2+0/2) Accurately ripped
05 [a1a19070|937743a6] (2+0/2) Accurately ripped
06 [77fcab33|fd93dcde] (2+0/2) Accurately ripped
07 [fa700fcf|ff17dce1] (2+0/2) Accurately ripped
08 [8370ddea|c7533fe4] (2+0/2) Accurately ripped
09 [2f12625b|c97a22d1] (2+0/2) Accurately ripped
10 [66d2747c|a77316bb] (2+0/2) Accurately ripped
11 [6441d726|72e1b2df] (2+0/2) Accurately ripped
12 [a9efb0a7|b3531ac3] (2+0/2) Accurately ripped
13 [bbc402a5|44af4a0e] (2+0/2) Accurately ripped
14 [116b59ac|71dd9438] (2+0/2) Accurately ripped
15 [cd21a22e|6558aa19] (2+0/2) Accurately ripped
16 [d63bae7e|4d5ad7d5] (2+0/2) Accurately ripped
17 [826439a0|80d7d6a6] (2+0/2) Accurately ripped
18 [7dc88bd0|67d370fd] (2+0/2) Accurately ripped
19 [d6b7501b|ad5ebede] (2+0/2) Accurately ripped
20 [4800c8b3|472521f3] (2+0/2) Accurately ripped
21 [97b94c32|829de574] (2+0/2) Accurately ripped
22 [ebcec45a|88131b9e] (2+0/2) Accurately ripped
23 [0718e5af|5e7babd7] (2+0/2) Accurately ripped
24 [d2d50b6e|6dfae52e] (2+0/2) Accurately ripped
Track Peak [ CRC32 ] [W/O NULL] [ LOG ]
-- 100,0 [8F7269FE] [5C65D4B2]
01 100,0 [045C39D4] [9F164760] CRC32
02 99,9 [A720E3BB] [38843F42] CRC32
03 100,0 [A69CD8D0] [29DB8515] CRC32
04 100,0 [0DBF6819] [901CF12B] CRC32
05 99,8 [70613AA7] [87F633C1] CRC32
06 100,0 [3CBAA46C] [A9AD8E4E] CRC32
07 99,9 [6493B5D3] [BA715F3E] CRC32
08 100,0 [E67E593D] [152A0F1C] CRC32
09 100,0 [8334FB26] [BA0B3B4B] CRC32
10 100,0 [21F6785E] [14E49738] CRC32
11 100,0 [8657AB63] [B4C98E08] CRC32
12 100,0 [9A75950E] [2E586366] CRC32
13 100,0 [F13AD1EB] [45A14F58] CRC32
14 65,5 [FC5EC36C] [A765527C] CRC32
15 78,1 [B421D97A] [C2248C0D] CRC32
16 100,0 [52C729E3] [3F895EBE] CRC32
17 63,3 [7939F434] [E633EAA5] CRC32
18 100,0 [15231716] [654D1CB1] CRC32
19 100,0 [D48A38DE] [140FB300] CRC32
20 100,0 [176910A0] [9379A68F] CRC32
21 100,0 [D6E1BF7A] [F564CBD8] CRC32
22 100,0 [A78CCD8B] [BF45FA53] CRC32
23 100,0 [5567881E] [844D555E] CRC32
24 99,9 [ECEAC68A] [3CAD0171] CRC32
 
Отчет CUETools CD2
[CUETools log; Date: 04.05.2013 17:13:07; Version: 2.1.4]
[CTDB TOCID: mnoWhbM6yw264mLX_WN7SF3IgHg-] found.
Track | CTDB Status
1 | (1/1) Accurately ripped
2 | (1/1) Accurately ripped
3 | (1/1) Accurately ripped
4 | (1/1) Accurately ripped
5 | (1/1) Accurately ripped
6 | (1/1) Accurately ripped
7 | (1/1) Accurately ripped
8 | (1/1) Accurately ripped
9 | (1/1) Accurately ripped
10 | (1/1) Accurately ripped
[AccurateRip ID: 000a8570-005485f1-7606b90a] found.
Track [ CRC | V2 ] Status
01 [d5ee1b6e|ce23b3d8] (2+0/2) Accurately ripped
02 [f7ac53c9|4f1346fa] (2+0/2) Accurately ripped
03 [9a714fac|ab44d6cd] (2+0/2) Accurately ripped
04 [47e37b37|4c656f94] (2+0/2) Accurately ripped
05 [6f482ddd|bce6ceb9] (2+0/2) Accurately ripped
06 [74778828|635f659e] (2+0/2) Accurately ripped
07 [e5e5dbc0|1174e30f] (2+0/2) Accurately ripped
08 [2f823c6d|696a7a64] (2+0/2) Accurately ripped
09 [0603999c|89ccc96c] (2+0/2) Accurately ripped
10 [9bb10a2b|60fcdc72] (2+0/2) Accurately ripped
Track Peak [ CRC32 ] [W/O NULL] [ LOG ]
-- 100,0 [005B6FF6] [2AA1D5EC]
01 100,0 [662812A8] [5B8A8B2B] CRC32
02 100,0 [27224D57] [EDFD16FB] CRC32
03 100,0 [65138F75] [D67D78C2] CRC32
04 100,0 [ED82D419] [F5C631BC] CRC32
05 100,0 [EBC7C86B] [DDA86C05] CRC32
06 100,0 [BEC182DC] [8F010C28] CRC32
07 100,0 [C371209A] [4AC2D737] CRC32
08 100,0 [DAFA611B] [435754FF] CRC32
09 100,0 [1EE50EBE] [57CD5FB2] CRC32
10 100,0 [87EB5371] [2F98C89D] CRC32
 
Review by Al Campbell
This double-disc set from Collectables combines three Sergio Mendes LPs: In Person at El Matador, Pele, and Sergio Mendes' Favorite Things originally released on Atlantic Records. Highlights among the 34 tracks include versions of "Black Orpheus Medley," "My Favorite Things," and "Comin' Home Baby."
10:39
300
Нет комментариев. Ваш будет первым!