Поиск

(Latin Jazz, Salsa) [CD] Fania All Stars - Rhythm Machine (1977) - 2007, FLAC (tracks+.cue), lossless

(Latin Jazz, Salsa) [CD] Fania All Stars - Rhythm Machine (1977) - 2007, FLAC (tracks+.cue), lossless
Треклист:
Fania All Stars - Rhythm Machine (1977) Жанр: Latin Jazz, Salsa
Носитель: CD
Год издания: 2007
Издатель (лейбл): Sony BMG
Номер по каталогу: 88697122723
Аудиокодек: FLAC (*.flac)
Тип рипа: tracks+.cue
Битрейт аудио: lossless
Продолжительность: 41:00
Источник (релизер): What.cd (Vroly)
Наличие сканов в содержимом раздачи: нет
Треклист:
01. Ella Fue (She Was The One) (3:44)
02. En Orbita (4:57)
03. Awake (5:24)
04. Peanuts (4:58)
05. Jubileo (6:32)
06. Verao Vermelho (6:22)
07. Steady (Fijo) (2:51)
08. Juan Pachanga (Daylight) (6:12)
 
 
Лог создания рипа
Exact Audio Copy V1.0 beta 2 from 29. April 2011
EAC extraction logfile from 25. August 2013, 17:56
Fania All Stars / Rhythm Machine
Used drive : TSSTcorpCDDVDW SH-S223F Adapter: 1 ID: 1
Read mode : Secure
Utilize accurate stream : Yes
Defeat audio cache : Yes
Make use of C2 pointers : No
Read offset correction : 6
Overread into Lead-In and Lead-Out : No
Fill up missing offset samples with silence : Yes
Delete leading and trailing silent blocks : No
Null samples used in CRC calculations : Yes
Used interface : Native Win32 interface for Win NT & 2000
Gap handling : Appended to previous track
Used output format : User Defined Encoder
Selected bitrate : 1024 kBit/s
Quality : High
Add ID3 tag : No
Command line compressor : C:\Program Files\Exact Audio Copy\Flac\flac.exe
Additional command line options : -8 -V -T "ARTIST=%artist%" -T "TITLE=%title%" -T "ALBUM=%albumtitle%" -T "DATE=%year%" -T "TRACKNUMBER=%tracknr%" -T "GENRE=%genre%" -T "PERFORMER=%albuminterpret%" -T "COMPOSER=%composer%" %haslyrics%--tag-from-file=LYRICS
TOC of the extracted CD
Track | Start | Length | Start sector | End sector
---------------------------------------------------------
1 | 0:00.00 | 3:44.05 | 0 | 16804
2 | 3:44.05 | 4:56.52 | 16805 | 39056
3 | 8:40.57 | 5:23.53 | 39057 | 63334
4 | 14:04.35 | 4:58.18 | 63335 | 85702
5 | 19:02.53 | 6:31.62 | 85703 | 115089
6 | 25:34.40 | 6:22.26 | 115090 | 143765
7 | 31:56.66 | 2:50.61 | 143766 | 156576
8 | 34:47.52 | 6:12.13 | 156577 | 184489
Track 1
Filename C:\EAC\Fania All Stars - Rhythm Machine (1977) - FLAC\01 - Ella Fue (She was the One).wav
Pre-gap length 0:00:02.00
Peak level 99.7 %
Extraction speed 3.5 X
Track quality 99.9 %
Test CRC 912E7D46
Copy CRC 912E7D46
Track not present in AccurateRip database
Copy OK
Track 2
Filename C:\EAC\Fania All Stars - Rhythm Machine (1977) - FLAC\02 - En Orbita.wav
Peak level 99.7 %
Extraction speed 5.1 X
Track quality 100.0 %
Test CRC CE5DF77F
Copy CRC CE5DF77F
Track not present in AccurateRip database
Copy OK
Track 3
Filename C:\EAC\Fania All Stars - Rhythm Machine (1977) - FLAC\03 - Awake.wav
Peak level 99.7 %
Extraction speed 4.8 X
Track quality 99.9 %
Test CRC 5655BBB9
Copy CRC 5655BBB9
Track not present in AccurateRip database
Copy OK
Track 4
Filename C:\EAC\Fania All Stars - Rhythm Machine (1977) - FLAC\04 - Peanuts.wav
Peak level 99.7 %
Extraction speed 6.2 X
Track quality 100.0 %
Test CRC 85A99A5A
Copy CRC 85A99A5A
Track not present in AccurateRip database
Copy OK
Track 5
Filename C:\EAC\Fania All Stars - Rhythm Machine (1977) - FLAC\05 - Jubileo.wav
Peak level 99.7 %
Extraction speed 6.9 X
Track quality 100.0 %
Test CRC EE239C76
Copy CRC EE239C76
Track not present in AccurateRip database
Copy OK
Track 6
Filename C:\EAC\Fania All Stars - Rhythm Machine (1977) - FLAC\06 - Verao Vermelho.wav
Peak level 99.7 %
Extraction speed 7.4 X
Track quality 100.0 %
Test CRC 985DB254
Copy CRC 985DB254
Track not present in AccurateRip database
Copy OK
Track 7
Filename C:\EAC\Fania All Stars - Rhythm Machine (1977) - FLAC\07 - Steady (fijo).wav
Peak level 99.7 %
Extraction speed 6.9 X
Track quality 100.0 %
Test CRC 550EF7B1
Copy CRC 550EF7B1
Track not present in AccurateRip database
Copy OK
Track 8
Filename C:\EAC\Fania All Stars - Rhythm Machine (1977) - FLAC\08 - Juan Pachanga (Daylight).wav
Peak level 99.7 %
Extraction speed 6.8 X
Track quality 99.9 %
Test CRC BA3A4C6D
Copy CRC BA3A4C6D
Track not present in AccurateRip database
Copy OK
None of the tracks are present in the AccurateRip database
No errors occurred
End of status report
==== Log checksum D149F7D9768355EFB6002C5255F2E9D1C813A25AE03618530B0CC625A889A21B ====
 
Содержание индексной карты (.CUE)
REM GENRE Latin Jazz
REM DATE 1977
REM DISCID 66099B08
REM COMMENT "ExactAudioCopy v1.0b2"
PERFORMER "Fania All Stars"
TITLE "Rhythm Machine"
FILE "01 - Ella Fue (She Was The One).wav" WAVE
TRACK 01 AUDIO
TITLE "Ella Fue (She Was The One)"
PERFORMER "Fania All Stars"
ISRC H2KM10022821
INDEX 01 00:00:00
FILE "02 - En Orbita.wav" WAVE
TRACK 02 AUDIO
TITLE "En Orbita"
PERFORMER "Fania All Stars"
ISRC H2KM10022822
INDEX 01 00:00:00
FILE "03 - Awake.wav" WAVE
TRACK 03 AUDIO
TITLE "Awake"
PERFORMER "Fania All Stars"
ISRC H2KM10022763
INDEX 01 00:00:00
FILE "04 - Peanuts.wav" WAVE
TRACK 04 AUDIO
TITLE "Peanuts"
PERFORMER "Fania All Stars"
ISRC H2KM10022816
INDEX 01 00:00:00
FILE "05 - Jubileo.wav" WAVE
TRACK 05 AUDIO
TITLE "Jubileo"
PERFORMER "Fania All Stars"
ISRC H2KM10022816
INDEX 01 00:00:00
FILE "06 - Verao Vermelho.wav" WAVE
TRACK 06 AUDIO
TITLE "Verao Vermelho"
PERFORMER "Fania All Stars"
ISRC H2KM10022817
INDEX 01 00:00:00
FILE "07 - Steady (Fijo).wav" WAVE
TRACK 07 AUDIO
TITLE "Steady (Fijo)"
PERFORMER "Fania All Stars"
ISRC H2KM10022818
INDEX 01 00:00:00
FILE "08 - Juan Pachanga (Daylight).wav" WAVE
TRACK 08 AUDIO
TITLE "Juan Pachanga (Daylight)"
PERFORMER "Fania All Stars"
ISRC H2KM10022819
INDEX 01 00:00:00
 
Об альбоме (сборнике)
This release on the famous Fania label from 1977 features a special incarnation of the All-Stars. On one hand we have label stalwarts Papo Lucca, Nicky Marrero, Johnny Pacheco, Roberto Roena, Mongo Santamaria, Bobby Valentin, Ruben Blades, Louis Ortiz and Louie Ramirez, on the other hand special guests Bob James and Eric Gale, giving the whole project a nice touch. Production is handled by Jay Chattaway who also arranged and conducted, yielding a very smooth latin project.
22:35
294
Нет комментариев. Ваш будет первым!