Поиск

(Latin Jazz, Salsa) [CD] Fania All Stars — Latin - Soul - Rock - 2000, FLAC (tracks+.cue), lossless

(Latin Jazz, Salsa) [CD] Fania All Stars — Latin - Soul - Rock - 2000, FLAC (tracks+.cue), lossless
Треклист:
Fania All Stars — Latin - Soul - Rock Жанр: Latin Jazz, Salsa
Носитель: CD
Год издания: 2000
Издатель (лейбл): Fania Records
Номер по каталогу: SLP 470
Аудиокодек: FLAC (*.flac)
Тип рипа: tracks+.cue
Битрейт аудио: lossless
Продолжительность: 45:18
Источник (релизер): What.cd (Artanix)
Наличие сканов в содержимом раздачи: да
Треклист:
01. Viva Tirado (5:23)
02. Chanchullo (5:38)
03. Smoke (4:06)
04. There you go (3:11)
05. Mama guela (2:56)
06. El raton (7:56)
07. Soul makossa (5:49)
08. Congo bongo (10:18)
 
 
Лог создания рипа
Exact Audio Copy V1.0 beta 1 from 15. November 2010
EAC extraction logfile from 1. December 2010, 15:47
Fania All Stars / Latin-Soul-Rock
Used drive : HL-DT-STDVDRAM GSA-H10A Adapter: 1 ID: 0
Read mode : Secure
Utilize accurate stream : Yes
Defeat audio cache : Yes
Make use of C2 pointers : No
Read offset correction : 667
Overread into Lead-In and Lead-Out : No
Fill up missing offset samples with silence : Yes
Delete leading and trailing silent blocks : No
Null samples used in CRC calculations : Yes
Used interface : Native Win32 interface for Win NT & 2000
Gap handling : Appended to previous track
Used output format : Internal WAV Routines
Sample format : 44.100 Hz; 16 Bit; Stereo
TOC of the extracted CD
Track | Start | Length | Start sector | End sector
---------------------------------------------------------
1 | 0:00.00 | 5:23.00 | 0 | 24224
2 | 5:23.00 | 5:38.27 | 24225 | 49601
3 | 11:01.27 | 4:06.10 | 49602 | 68061
4 | 15:07.37 | 3:10.65 | 68062 | 82376
5 | 18:18.27 | 2:56.30 | 82377 | 95606
6 | 21:14.57 | 7:56.13 | 95607 | 131319
7 | 29:10.70 | 5:48.40 | 131320 | 157459
8 | 34:59.35 | 10:18.22 | 157460 | 203831
Track 1
Filename C:\Documents and Settings\andy\Desktop\New\01 - Viva Tirado.wav
Pre-gap length 0:00:02.00
Peak level 100.0 %
Extraction speed 2.8 X
Track quality 100.0 %
Test CRC 66A75798
Copy CRC 66A75798
Track not present in AccurateRip database
Copy OK
Track 2
Filename C:\Documents and Settings\andy\Desktop\New\02 - Chanchullo.wav
Pre-gap length 0:00:02.25
Peak level 66.0 %
Extraction speed 2.9 X
Track quality 99.9 %
Test CRC EA6833B2
Copy CRC EA6833B2
Track not present in AccurateRip database
Copy OK
Track 3
Filename C:\Documents and Settings\andy\Desktop\New\03 - Smoke.wav
Pre-gap length 0:00:02.10
Peak level 100.0 %
Extraction speed 3.4 X
Track quality 100.0 %
Test CRC 1A75F975
Copy CRC 1A75F975
Track not present in AccurateRip database
Copy OK
Track 4
Filename C:\Documents and Settings\andy\Desktop\New\04 - There you go.wav
Pre-gap length 0:00:02.49
Peak level 70.1 %
Extraction speed 3.4 X
Track quality 100.0 %
Test CRC 7EBFD783
Copy CRC 7EBFD783
Track not present in AccurateRip database
Copy OK
Track 5
Filename C:\Documents and Settings\andy\Desktop\New\05 - Mama guela.wav
Pre-gap length 0:00:02.53
Peak level 100.0 %
Extraction speed 3.6 X
Track quality 100.0 %
Test CRC 4029DC4F
Copy CRC 4029DC4F
Track not present in AccurateRip database
Copy OK
Track 6
Filename C:\Documents and Settings\andy\Desktop\New\06 - El raton.wav
Pre-gap length 0:00:01.37
Peak level 100.0 %
Extraction speed 4.0 X
Track quality 99.9 %
Test CRC 7B6DE195
Copy CRC 7B6DE195
Track not present in AccurateRip database
Copy OK
Track 7
Filename C:\Documents and Settings\andy\Desktop\New\07 - Soul makossa.wav
Pre-gap length 0:00:01.70
Peak level 100.0 %
Extraction speed 4.5 X
Track quality 100.0 %
Test CRC 87DA5073
Copy CRC 87DA5073
Track not present in AccurateRip database
Copy OK
Track 8
Filename C:\Documents and Settings\andy\Desktop\New\08 - Congo bongo.wav
Pre-gap length 0:00:02.64
Peak level 100.0 %
Extraction speed 5.2 X
Track quality 100.0 %
Test CRC 8824770A
Copy CRC 8824770A
Track not present in AccurateRip database
Copy OK
None of the tracks are present in the AccurateRip database
No errors occurred
End of status report
==== Log checksum 541491D26A9656DBA00517B88FAFD50DA50D4CAE532B43C74904EEEC75AFD1F5 ====
 
Содержание индексной карты (.CUE)
REM GENRE Latin
REM DATE 1974
REM DISCID 520A9D08
REM COMMENT "ExactAudioCopy v1.0b1"
PERFORMER "Fania All Stars"
TITLE "Latin-Soul-Rock"
FILE "01 - Viva Tirado.wav" WAVE
TRACK 01 AUDIO
TITLE "Viva Tirado"
PERFORMER "Fania All Stars"
INDEX 01 00:00:00
TRACK 02 AUDIO
TITLE "Chanchullo"
PERFORMER "Fania All Stars"
INDEX 00 05:20:50
FILE "02 - Chanchullo.wav" WAVE
INDEX 01 00:00:00
TRACK 03 AUDIO
TITLE "Smoke"
PERFORMER "Fania All Stars"
INDEX 00 05:36:17
FILE "03 - Smoke.wav" WAVE
INDEX 01 00:00:00
TRACK 04 AUDIO
TITLE "There you go"
PERFORMER "Fania All Stars"
INDEX 00 04:03:36
FILE "04 - There you go.wav" WAVE
INDEX 01 00:00:00
TRACK 05 AUDIO
TITLE "Mama guela"
PERFORMER "Fania All Stars"
INDEX 00 03:08:12
FILE "05 - Mama guela.wav" WAVE
INDEX 01 00:00:00
TRACK 06 AUDIO
TITLE "El raton"
PERFORMER "Fania All Stars"
INDEX 00 02:54:68
FILE "06 - El raton.wav" WAVE
INDEX 01 00:00:00
TRACK 07 AUDIO
TITLE "Soul makossa"
PERFORMER "Fania All Stars"
INDEX 00 07:54:18
FILE "07 - Soul makossa.wav" WAVE
INDEX 01 00:00:00
TRACK 08 AUDIO
TITLE "Congo bongo"
PERFORMER "Fania All Stars"
INDEX 00 05:45:51
FILE "08 - Congo bongo.wav" WAVE
INDEX 01 00:00:00
 
Об исполнителе (группе)
The flagship act for Fania Records, the Fania All-Stars popularized New York salsa during the 1970s by organizing concerts at larger and larger venues (from the Red Garter in Greenwich Village all the way to Yankee Stadium in the Bronx) that spotlighted not only the label's but the salsa world's biggest stars -- Ray Barretto, Willie Colón, Johnny Pacheco, Rubén Blades, Hector Lavoe, Ismael Miranda, Cheo Feliciano, Bobby Cruz, Pete "El Conde" Rodriguez, and special guests like Tito Puente, Celia Cruz, and Eddie Palmieri. LPs by the collective were usually recorded live and featured long jams with plenty of space for solos for each of the salsa heroes on-stage at the time. Though the label management's quest for crossover success led to a few diluted major-label recordings during the late '70s and early '80s, infrequent events featuring the Fania All-Stars remained huge attractions into the late '90s.
Fania Records was formed in March 1964 by Johnny Pacheco and lawyer Jerry Masucci. Originally just a tiny independent, the label was distributed to local stores out of the trunk of Pacheco's car. By 1967, Masucci's intrepid management had begun to pay dividends. After LPs by Ray Barretto, Willie Colón, Joe Bataan, and Pacheco himself became popular within the New York salsa community, Masucci promoted a jam-session concert at the Red Garter. The Fania All-Stars' first two LPs, Live at the Red Garter, Vols. 1-2, were recorded that night, with guests including Tito Puente and Eddie Palmieri. After sales proved slow outside New York, Masucci envisioned putting on another live show and filming the results. After negotiations to book the Fillmore East broke down, the Fania All-Stars appeared at the Cheetah in midtown Manhattan on August 26, 1971. Fans packed the club to more than twice capacity, and another pair of live LPs (Live at the Cheetah) followed. One year later, the results also appeared in the salsa documentary Our Latin Thing (Nuestra Cosa), along with interviews and footage from Spanish Harlem.
The film proved just the kick-start that the salsa scene needed. Wedged between recordings and appearances by individual group members, the Fania All-Stars played sell-out shows across North America, from Puerto Rico and Panama to Chicago. Then, on August 24, 1973, the salsa wave crested with the group's performance at New York's Yankee Stadium in front of 44,000 fans. In 1974, the group traveled to Zaire and performed before the Rumble in the Jungle, the notorious heavyweight title fight between Muhammad Ali and George Foreman. Another appearance at Yankee Stadium in 1975 was also recorded and (unsurprisingly) released as a pair of albums (Live at Yankee Stadium). Footage from both appearances at the venue were edited into the 1976 film Salsa, distributed by Columbia.
That same year, the Fania All-Stars made their studio debut with A Tribute to Tito Rodriguez. Masucci then used his connections with Columbia to negotiate a recording contract for a series of crossover albums he hoped would break the group (and the style) with mainstream audiences across the world. By the end of the '70s, the Fania All-Stars recorded four LPs for Columbia. For better or worse, the loose improvisational feel of their early live recordings had been sacrificed for a slick, studio-bound effect that placed emphasis on producers and engineers as well as high-profile guest slots from jazz fusion names like Bob James, David Sanborn, Maynard Ferguson, and Hubert Laws.
Though albums like 1977's Rhythm Machine did well with audiences not used to buying salsa, they failed to connect. Fania Records' fortunes began to decline by the beginning of the '80s, not just with potential mainstream listeners, but also with hardcore Latin lovers who had quickly moved from salsa to the new sounds of Dominican merengue. Masucci continued working in film, and produced a boxing film in 1983, The Last Fight (starring Rubén Blades as the protagonist and featuring Willie Colón as well).
The Fania All-Stars recorded eight studio albums during the 1980s, gradually moving from the overly polished sound of the late '70s to a more organic Latin jazz. In 1994, the group celebrated the 30th anniversary of Fania Records with live dates in San Juan, Miami, and New York. The Fania All-Stars continued to perform occasionally during the rest of the '90s.
22:34
279
Нет комментариев. Ваш будет первым!