Поиск

(Latin Jazz, Salsa) [CD] Fania All-Stars - Our Latin Thing (Nuestra Cosa) (2 CD) (1972) - 2011 [40th Anniversary Edition], FLAC (tracks+.cue), lossless

(Latin Jazz, Salsa) [CD] Fania All-Stars - Our Latin Thing (Nuestra Cosa) (2 CD) (1972) - 2011 [40th Anniversary Edition], FLAC (tracks+.cue), lossless
Треклист:
Fania All-Stars - Our Latin Thing (Nuestra Cosa) (2 CD) (1972) [40th Anniversary Edition] Жанр: Latin Jazz, Salsa
Носитель: CD
Год издания: 2011
Издатель (лейбл): Fania
Номер по каталогу: 463 950 9751-2
Аудиокодек: FLAC (*.flac)
Тип рипа: tracks+.cue
Битрейт аудио: lossless
Продолжительность: 38:40 / 60:39
Источник (релизер): What.cd (notfake)
Наличие сканов в содержимом раздачи: нет
Volume 1

01. Introduction Theme (Cheetah) (5:21)
02. Descarga Fania (9:18)
03. Anacaona (Cheetah) (7:16)
04. Quitate Tu (16:45)
Volume 2

01. Ahoa Vengo Yo (9:47)
02. Estrellas De Fania (7:25)
03. Que Barbaridad (6:10)
04. Ponte Duro (9:19)
05. Macho Cimarron (11:43)
06. Closing Theme (2:05)
07. Cocinando (10:09)
08. Abran Paso Part 1 (2:22)
09. Abran Paso Part 2 (1:39)
 

 
Volume 1
 
Лог создания рипа
Exact Audio Copy V1.0 beta 2 from 29. April 2011
EAC extraction logfile from 15. November 2011, 21:13
Fania All Stars / Our Latin Thing (Nuestra Cosa): Live at the Cheetah [40th Anniversary Limited Edition]
Used drive : TSSTcorpDVD+-RW TS-H653B Adapter: 1 ID: 0
Read mode : Secure
Utilize accurate stream : Yes
Defeat audio cache : Yes
Make use of C2 pointers : No
Read offset correction : 6
Overread into Lead-In and Lead-Out : No
Fill up missing offset samples with silence : Yes
Delete leading and trailing silent blocks : No
Null samples used in CRC calculations : Yes
Used interface : Native Win32 interface for Win NT & 2000
Gap handling : Appended to previous track
Used output format : User Defined Encoder
Selected bitrate : 768 kBit/s
Quality : High
Add ID3 tag : No
Command line compressor : C:\Program Files\Exact Audio Copy\FLAC\FLAC.EXE
Additional command line options : -8 -V -T "ARTIST=%artist%" -T "TITLE=%title%" -T "ALBUM=%albumtitle%" -T "DATE=%year%" -T "TRACKNUMBER=%tracknr%" -T "GENRE=%genre%" -T "PERFORMER=%albuminterpret%" -T "COMPOSER=%composer%" %haslyrics%--tag-from-file=LYRICS
TOC of the extracted CD
Track | Start | Length | Start sector | End sector
---------------------------------------------------------
1 | 0:00.00 | 5:21.04 | 0 | 24078
2 | 5:21.04 | 9:17.47 | 24079 | 65900
3 | 14:38.51 | 7:15.47 | 65901 | 98572
4 | 21:54.23 | 16:45.28 | 98573 | 173975
Track 1
Filename C:\Fania All Stars - Our Latin Thing (Nuestra Cosa) - Live at the Cheetah [40th Anniversary Limited Edition] [2011]\Vol. 1\01 - Introduction Theme (Cheetah).wav
Pre-gap length 0:00:02.00
Peak level 99.9 %
Extraction speed 4.2 X
Track quality 99.9 %
Test CRC 1EDB28D9
Copy CRC 1EDB28D9
Track not present in AccurateRip database
Copy OK
Track 2
Filename C:\Fania All Stars - Our Latin Thing (Nuestra Cosa) - Live at the Cheetah [40th Anniversary Limited Edition] [2011]\Vol. 1\02 - Descarga Fania.wav
Peak level 99.9 %
Extraction speed 6.1 X
Track quality 100.0 %
Test CRC 0469499C
Copy CRC 0469499C
Track not present in AccurateRip database
Copy OK
Track 3
Filename C:\Fania All Stars - Our Latin Thing (Nuestra Cosa) - Live at the Cheetah [40th Anniversary Limited Edition] [2011]\Vol. 1\03 - Anacaona (Cheetah).wav
Peak level 99.9 %
Extraction speed 6.1 X
Track quality 100.0 %
Test CRC C0DEBCC0
Copy CRC C0DEBCC0
Track not present in AccurateRip database
Copy OK
Track 4
Filename C:\Fania All Stars - Our Latin Thing (Nuestra Cosa) - Live at the Cheetah [40th Anniversary Limited Edition] [2011]\Vol. 1\04 - Quitate Tu.wav
Peak level 99.9 %
Extraction speed 8.0 X
Track quality 100.0 %
Test CRC E8C76B3E
Copy CRC E8C76B3E
Track not present in AccurateRip database
Copy OK
None of the tracks are present in the AccurateRip database
No errors occurred
End of status report
==== Log checksum 7CDAE6C522219C5EC4C5A3E55FD0AA6DABA7BF9E922C20D9AC6BBAF61B8791BD ====
 
Содержание индексной карты (.CUE)
REM GENRE Latin Jazz
REM DATE 1972
REM DISCID 25090F04
REM COMMENT "ExactAudioCopy v1.0b2"
PERFORMER "Fania All Stars"
TITLE "Our Latin Thing (Nuestra Cosa): Live At The Cheetah (Vol. 1) [40th Anniversary Limited Edition]"
FILE "01 - Introduction Theme (Cheetah).wav" WAVE
TRACK 01 AUDIO
TITLE "Introduction Theme (Cheetah)"
PERFORMER "Fania All Stars"
ISRC H2<<<0600397
INDEX 01 00:00:00
FILE "02 - Descarga Fania.wav" WAVE
TRACK 02 AUDIO
TITLE "Descarga Fania"
PERFORMER "Fania All Stars"
ISRC H2<<<0600398
INDEX 01 00:00:00
FILE "03 - Anacaona (Cheetah).wav" WAVE
TRACK 03 AUDIO
TITLE "Anacaona (Cheetah)"
PERFORMER "Fania All Stars"
ISRC H2<<<0600399
INDEX 01 00:00:00
FILE "04 - Quitate Tu.wav" WAVE
TRACK 04 AUDIO
TITLE "Quitate Tu"
PERFORMER "Fania All Stars"
ISRC H2<<<0600400
INDEX 01 00:00:00
 
Volume 2
 
Лог создания рипа
Exact Audio Copy V1.0 beta 2 from 29. April 2011
EAC extraction logfile from 15. November 2011, 22:00
Fania All Stars / Our Latin Thing (Nuestra Cosa): Live at the Cheetah [40th Anniversary Limited Edition]
Used drive : TSSTcorpDVD+-RW TS-H653B Adapter: 1 ID: 0
Read mode : Secure
Utilize accurate stream : Yes
Defeat audio cache : Yes
Make use of C2 pointers : No
Read offset correction : 6
Overread into Lead-In and Lead-Out : No
Fill up missing offset samples with silence : Yes
Delete leading and trailing silent blocks : No
Null samples used in CRC calculations : Yes
Used interface : Native Win32 interface for Win NT & 2000
Gap handling : Appended to previous track
Used output format : User Defined Encoder
Selected bitrate : 768 kBit/s
Quality : High
Add ID3 tag : No
Command line compressor : C:\Program Files\Exact Audio Copy\FLAC\FLAC.EXE
Additional command line options : -8 -V -T "ARTIST=%artist%" -T "TITLE=%title%" -T "ALBUM=%albumtitle%" -T "DATE=%year%" -T "TRACKNUMBER=%tracknr%" -T "GENRE=%genre%" -T "PERFORMER=%albuminterpret%" -T "COMPOSER=%composer%" %haslyrics%--tag-from-file=LYRICS
TOC of the extracted CD
Track | Start | Length | Start sector | End sector
---------------------------------------------------------
1 | 0:00.00 | 9:46.43 | 0 | 43992
2 | 9:46.43 | 7:24.72 | 43993 | 77364
3 | 17:11.40 | 6:09.68 | 77365 | 105107
4 | 23:21.33 | 9:19.18 | 105108 | 147050
5 | 32:40.51 | 11:43.17 | 147051 | 199792
6 | 44:23.68 | 2:04.64 | 199793 | 209156
7 | 46:28.57 | 10:09.03 | 209157 | 254834
8 | 56:37.60 | 2:21.60 | 254835 | 265469
9 | 58:59.45 | 1:38.73 | 265470 | 272892
Track 1
Filename C:\Fania All Stars - Our Latin Thing (Nuestra Cosa) - Live at the Cheetah [40th Anniversary Limited Edition] [2011]\Vol. 2\01 - Ahoa Vengo Yo.wav
Pre-gap length 0:00:02.00
Peak level 83.1 %
Extraction speed 5.4 X
Track quality 100.0 %
Test CRC 1A1E7ED6
Copy CRC 1A1E7ED6
Track not present in AccurateRip database
Copy OK
Track 2
Filename C:\Fania All Stars - Our Latin Thing (Nuestra Cosa) - Live at the Cheetah [40th Anniversary Limited Edition] [2011]\Vol. 2\02 - Estrellas De Fania.wav
Peak level 86.1 %
Extraction speed 6.0 X
Track quality 100.0 %
Test CRC 72BFC3C1
Copy CRC 72BFC3C1
Track not present in AccurateRip database
Copy OK
Track 3
Filename C:\Fania All Stars - Our Latin Thing (Nuestra Cosa) - Live at the Cheetah [40th Anniversary Limited Edition] [2011]\Vol. 2\03 - Que Barbaridad.wav
Peak level 88.5 %
Extraction speed 6.8 X
Track quality 100.0 %
Test CRC A81796E7
Copy CRC A81796E7
Track not present in AccurateRip database
Copy OK
Track 4
Filename C:\Fania All Stars - Our Latin Thing (Nuestra Cosa) - Live at the Cheetah [40th Anniversary Limited Edition] [2011]\Vol. 2\04 - Ponte Duro.wav
Peak level 91.8 %
Extraction speed 7.6 X
Track quality 100.0 %
Test CRC 87FCB502
Copy CRC 87FCB502
Track not present in AccurateRip database
Copy OK
Track 5
Filename C:\Fania All Stars - Our Latin Thing (Nuestra Cosa) - Live at the Cheetah [40th Anniversary Limited Edition] [2011]\Vol. 2\05 - Macho Cimarron.wav
Peak level 96.3 %
Extraction speed 8.4 X
Track quality 100.0 %
Test CRC 94CCE1EB
Copy CRC 94CCE1EB
Track not present in AccurateRip database
Copy OK
Track 6
Filename C:\Fania All Stars - Our Latin Thing (Nuestra Cosa) - Live at the Cheetah [40th Anniversary Limited Edition] [2011]\Vol. 2\06 - Closing Theme.wav
Peak level 97.5 %
Extraction speed 5.0 X
Track quality 99.9 %
Test CRC 812CD033
Copy CRC 812CD033
Track not present in AccurateRip database
Copy OK
Track 7
Filename C:\Fania All Stars - Our Latin Thing (Nuestra Cosa) - Live at the Cheetah [40th Anniversary Limited Edition] [2011]\Vol. 2\07 - Cocinando.wav
Pre-gap length 0:00:01.93
Peak level 68.5 %
Extraction speed 9.2 X
Track quality 100.0 %
Test CRC 67320732
Copy CRC 67320732
Track not present in AccurateRip database
Copy OK
Track 8
Filename C:\Fania All Stars - Our Latin Thing (Nuestra Cosa) - Live at the Cheetah [40th Anniversary Limited Edition] [2011]\Vol. 2\08 - Abran Paso Part 1.wav
Peak level 70.7 %
Extraction speed 7.9 X
Track quality 100.0 %
Test CRC 9F42AE7F
Copy CRC 9F42AE7F
Track not present in AccurateRip database
Copy OK
Track 9
Filename C:\Fania All Stars - Our Latin Thing (Nuestra Cosa) - Live at the Cheetah [40th Anniversary Limited Edition] [2011]\Vol. 2\09 - Abran Paso Part 2.wav
Peak level 70.7 %
Extraction speed 5.0 X
Track quality 99.8 %
Test CRC 01034DBC
Copy CRC 01034DBC
Track not present in AccurateRip database
Copy OK
None of the tracks are present in the AccurateRip database
No errors occurred
End of status report
==== Log checksum 79B24986B6CC15F3B740D1267FE86D043928B1A2089D72B9F17002316CB479B8 ====
 
Содержание индексной карты (.CUE)
REM GENRE Latin Jazz
REM DATE 1972
REM DISCID 820E3609
REM COMMENT "ExactAudioCopy v1.0b2"
PERFORMER "Fania All Stars"
TITLE "Our Latin Thing (Nuestra Cosa): Live At The Cheetah (Vol. 2) [40th Anniversary Limited Edition]"
FILE "01 - Ahoa Vengo Yo.wav" WAVE
TRACK 01 AUDIO
TITLE "Ahoa Vengo Yo"
PERFORMER "Fania All Stars"
ISRC H2<<<0601687
INDEX 01 00:00:00
FILE "02 - Estrellas De Fania.wav" WAVE
TRACK 02 AUDIO
TITLE "Estrellas De Fania"
PERFORMER "Fania All Stars"
ISRC H2<<<0601412
INDEX 01 00:00:00
FILE "03 - Que Barbaridad.wav" WAVE
TRACK 03 AUDIO
TITLE "Que Barbaridad"
PERFORMER "Fania All Stars"
ISRC H2<<<0609962
INDEX 01 00:00:00
FILE "04 - Ponte Duro.wav" WAVE
TRACK 04 AUDIO
TITLE "Ponte Duro"
PERFORMER "Fania All Stars"
ISRC H2<<<0601074
INDEX 01 00:00:00
FILE "05 - Macho Cimarron.wav" WAVE
TRACK 05 AUDIO
TITLE "Macho Cimarron"
PERFORMER "Fania All Stars"
ISRC H2<<<0601503
INDEX 01 00:00:00
FILE "06 - Closing Theme.wav" WAVE
TRACK 06 AUDIO
TITLE "Closing Theme"
PERFORMER "Fania All Stars"
ISRC H2<<<0601731
INDEX 01 00:00:00
TRACK 07 AUDIO
TITLE "Cocinando"
PERFORMER "Fania All Stars"
ISRC H2<<<0900741
INDEX 00 02:02:69
FILE "07 - Cocinando.wav" WAVE
INDEX 01 00:00:00
FILE "08 - Abran Paso Part 1.wav" WAVE
TRACK 08 AUDIO
TITLE "Abran Paso Part 1"
PERFORMER "Fania All Stars"
ISRC H2<<<0900749
INDEX 01 00:00:00
FILE "09 - Abran Paso Part 2.wav" WAVE
TRACK 09 AUDIO
TITLE "Abran Paso Part 2"
PERFORMER "Fania All Stars"
ISRC H2<<<0900751
INDEX 01 00:00:00
16:40
270
Нет комментариев. Ваш будет первым!