Поиск

(Latin Jazz, Salsa) [CD] Fania All Stars - Fania All Stars with Pete ''El Conde'' Rodriguez - 1998, FLAC (tracks+.cue), lossless

(Latin Jazz, Salsa) [CD] Fania All Stars - Fania All Stars with Pete ''El Conde'' Rodriguez - 1998, FLAC (tracks+.cue), lossless
Треклист:
Fania All Stars - Fania All Stars with Pete ''El Conde'' Rodriguez
Жанр: Latin Jazz, Salsa
Носитель: CD
Год издания: 1998
Издатель (лейбл): Third
Номер по каталогу: third 33342-2
Аудиокодек: FLAC (*.flac)
Тип рипа: tracks+.cue
Битрейт аудио: lossless
Продолжительность: 50:34
Rip by alekow
Наличие сканов в содержимом раздачи: да
Треклист:
01. Meneame La Cuna (Live) (5:24)
02. Djobi, Djoba (4:58)
03. Encantigo (Feat. Celia Cruz) (7:59)
04. Rosa En El Fango (7:50)
05. Vacila Con Trago (5:58)
06. Macho Cimarron (Live) (11:45)
07. Pueblo Latino (Live) (6:40)
 
 
Лог создания рипа
Exact Audio Copy V1.0 beta 1 from 15. November 2010
EAC extraction logfile from 22. August 2014, 20:10
Fania All Stars / Fania All Stars With Pete ''El Conde'' Rodriguez
Used drive : TSSTcorpCDDVDW SH-224DB Adapter: 1 ID: 0
Read mode : Secure
Utilize accurate stream : Yes
Defeat audio cache : Yes
Make use of C2 pointers : No
Read offset correction : 6
Overread into Lead-In and Lead-Out : No
Fill up missing offset samples with silence : Yes
Delete leading and trailing silent blocks : No
Null samples used in CRC calculations : Yes
Used interface : Native Win32 interface for Win NT & 2000
Gap handling : Appended to previous track
Used output format : User Defined Encoder
Selected bitrate : 896 kBit/s
Quality : High
Add ID3 tag : No
Command line compressor : C:\Program Files\Exact Audio Copy\Flac\flac.exe
Additional command line options : -6 -V -T "ARTIST=%a" -T "TITLE=%t" -T "ALBUM=%g" -T "DATE=%y" -T "TRACKNUMBER=%n" -T "GENRE=%m" -T "COMMENT=%e" %s -o %d
TOC of the extracted CD
Track | Start | Length | Start sector | End sector
---------------------------------------------------------
1 | 0:00.00 | 5:24.25 | 0 | 24324
2 | 5:24.25 | 4:58.25 | 24325 | 46699
3 | 10:22.50 | 7:58.65 | 46700 | 82614
4 | 18:21.40 | 7:50.10 | 82615 | 117874
5 | 26:11.50 | 5:58.07 | 117875 | 144731
6 | 32:09.57 | 11:44.65 | 144732 | 197596
7 | 43:54.47 | 6:39.40 | 197597 | 227561
Track 1
Filename C:\New Folder\01 - Meneame La Cuna (Live).wav
Pre-gap length 0:00:02.00
Peak level 100.0 %
Extraction speed 1.8 X
Track quality 100.0 %
Test CRC 53769173
Copy CRC 53769173
Track not present in AccurateRip database
Copy OK
Track 2
Filename C:\New Folder\02 - Djobi, Djoba.wav
Pre-gap length 0:00:04.10
Peak level 100.0 %
Extraction speed 2.0 X
Track quality 100.0 %
Test CRC 85BF83A3
Copy CRC 85BF83A3
Track not present in AccurateRip database
Copy OK
Track 3
Filename C:\New Folder\03 - Encantigo (Feat. Celia Cruz).wav
Pre-gap length 0:00:03.38
Peak level 100.0 %
Extraction speed 2.4 X
Track quality 100.0 %
Test CRC AEE30F8B
Copy CRC AEE30F8B
Track not present in AccurateRip database
Copy OK
Track 4
Filename C:\New Folder\04 - Rosa En El Fango.wav
Pre-gap length 0:00:04.18
Peak level 99.8 %
Extraction speed 2.7 X
Track quality 100.0 %
Test CRC 23D59FF9
Copy CRC 23D59FF9
Track not present in AccurateRip database
Copy OK
Track 5
Filename C:\New Folder\05 - Vacila Con Trago.wav
Pre-gap length 0:00:04.24
Peak level 100.0 %
Extraction speed 2.9 X
Track quality 100.0 %
Test CRC D8FD73D5
Copy CRC D8FD73D5
Track not present in AccurateRip database
Copy OK
Track 6
Filename C:\New Folder\06 - Macho Cimarron (Live).wav
Pre-gap length 0:00:04.00
Peak level 100.0 %
Extraction speed 3.3 X
Track quality 100.0 %
Test CRC 028B4FF8
Copy CRC 028B4FF8
Track not present in AccurateRip database
Copy OK
Track 7
Filename C:\New Folder\07 - Pueblo Latino (Live).wav
Pre-gap length 0:00:03.37
Peak level 91.0 %
Extraction speed 3.4 X
Track quality 100.0 %
Test CRC 72FFD9FB
Copy CRC 72FFD9FB
Track not present in AccurateRip database
Copy OK
None of the tracks are present in the AccurateRip database
No errors occurred
End of status report
==== Log checksum 62892DBBF2E7AAE75CD7E9E3A2977F64FBB6E6F776E097E247AEF416F96CEE92 ====
 
Содержание индексной карты (.CUE)
REM GENRE Latin
REM DATE 1998
REM DISCID 4D0BDA07
REM COMMENT "ExactAudioCopy v1.0b1"
PERFORMER "Fania All Stars"
TITLE "Fania All Stars With Pete ''El Conde'' Rodriguez"
FILE "01 - Meneame La Cuna (Live).wav" WAVE
TRACK 01 AUDIO
TITLE "Meneame La Cuna (Live)"
PERFORMER "Fania All Stars"
INDEX 01 00:00:00
TRACK 02 AUDIO
TITLE "Djobi, Djoba"
PERFORMER "Fania All Stars"
INDEX 00 05:20:15
FILE "02 - Djobi, Djoba.wav" WAVE
INDEX 01 00:00:00
TRACK 03 AUDIO
TITLE "Encantigo (Feat. Celia Cruz)"
PERFORMER "Fania All Stars"
INDEX 00 04:54:62
FILE "03 - Encantigo (Feat. Celia Cruz).wav" WAVE
INDEX 01 00:00:00
TRACK 04 AUDIO
TITLE "Rosa En El Fango"
PERFORMER "Fania All Stars"
INDEX 00 07:54:47
FILE "04 - Rosa En El Fango.wav" WAVE
INDEX 01 00:00:00
TRACK 05 AUDIO
TITLE "Vacila Con Trago"
PERFORMER "Fania All Stars"
INDEX 00 07:45:61
FILE "05 - Vacila Con Trago.wav" WAVE
INDEX 01 00:00:00
TRACK 06 AUDIO
TITLE "Macho Cimarron (Live)"
PERFORMER "Fania All Stars"
INDEX 00 05:54:07
FILE "06 - Macho Cimarron (Live).wav" WAVE
INDEX 01 00:00:00
TRACK 07 AUDIO
TITLE "Pueblo Latino (Live)"
PERFORMER "Fania All Stars"
INDEX 00 11:41:28
FILE "07 - Pueblo Latino (Live).wav" WAVE
INDEX 01 00:00:00
15:39
272
Нет комментариев. Ваш будет первым!