Поиск

(Latin Jazz) Nueva Manteca - Afro Cuban Sanctus Missa Salsa - 1997, FLAC (tracks+.cue), lossless

(Latin Jazz) Nueva Manteca - Afro Cuban Sanctus Missa Salsa - 1997, FLAC (tracks+.cue), lossless
Треклист:
•Nueva Manteca - Afro Cuban Sanctus Missa Salsa•
Жанр: Latin Jazz
Страна-производитель диска: Holland
Год издания диска: 1997
Издатель (лейбл): Azucar
Номер по каталогу: 7243 8 21053 2 9
Аудиокодек: FLAC (*.flac)
Тип рипа: tracks+.cue
Битрейт аудио: lossless
Продолжительность: 00:47:55
Источник (релизер): tiburon
Наличие сканов в содержимом раздачи: да
Треклист:
01. Introitus - Praise Songs For Elegua 0:57
02. Intro Rumba De Cajon 1:16
03. Sanctus 1 4:33
04. Kyrie 4:53
05. Gloria 3:46
06. Praise Song For Yemaya 4:47
07. Credo 6:03
08. Piano Into To Crucifixus 1:00
09. Crucifixus 3:21
10. Toque De Bata Para Osun 0:46
11. Praise Song For Obatala 4:31
12. Padre Nuestro (Lord's Prayer) 4:12
13. Agnus Dei 5:18
14. Sagnus 2 2:25
Personnel:Wim Both - trumpet
Ben Van Den Dungen - sax
Rini Swinkels - trumpet
Nils Fischer - drums, bongo
Jan Laurens Hartong - piano
Lucas Van Merwijk - drums, timbales
Bart Platteau - flute
Claus Tofft - drums, congas
Delia Gonzalez - vocals
Miguel Montenegro - vocals
Jarmo Hoogendijk - trumpet
 
Лог создания рипа
Exact Audio Copy V1.0 beta 2 from 29. April 2011
EAC extraction logfile from 2. February 2012, 17:39
Nueva Manteca / Afro Cuban Sanctus Miss Salsa
Used drive : PLDS DVD+-RW DS-8A5SH Adapter: 0 ID: 0
Read mode : Secure
Utilize accurate stream : Yes
Defeat audio cache : Yes
Make use of C2 pointers : No
Read offset correction : 6
Overread into Lead-In and Lead-Out : No
Fill up missing offset samples with silence : Yes
Delete leading and trailing silent blocks : No
Null samples used in CRC calculations : Yes
Used interface : Native Win32 interface for Win NT & 2000
Gap handling : Appended to previous track
Used output format : User Defined Encoder
Selected bitrate : 256 kBit/s
Quality : High
Add ID3 tag : No
Command line compressor : C:\Program Files (x86)\FLAC\flac.exe
Additional command line options : -8 -V -T "ARTIST=%artist%" -T "TITLE=%title%" -T "ALBUM=%albumtitle%" -T "DATE=%year%" -T "TRACKNUMBER=%tracknr%" -T "TOTALTRACKS=%numtracks%" -T "GENRE=%genre%" -T "ALBUMARTIST=%albumartist%" -T "ALBUM ARTIST=%albumartist%
TOC of the extracted CD
Track | Start | Length | Start sector | End sector
---------------------------------------------------------
1 | 0:00.00 | 0:55.52 | 0 | 4176
2 | 0:55.52 | 1:16.38 | 4177 | 9914
3 | 2:12.15 | 4:33.30 | 9915 | 30419
4 | 6:45.45 | 4:53.72 | 30420 | 52466
5 | 11:39.42 | 3:45.53 | 52467 | 69394
6 | 15:25.20 | 4:48.17 | 69395 | 91011
7 | 20:13.37 | 6:04.33 | 91012 | 118344
8 | 26:17.70 | 1:00.40 | 118345 | 122884
9 | 27:18.35 | 3:21.35 | 122885 | 137994
10 | 30:39.70 | 0:46.57 | 137995 | 141501
11 | 31:26.52 | 4:31.53 | 141502 | 161879
12 | 35:58.30 | 4:12.55 | 161880 | 180834
13 | 40:11.10 | 5:18.24 | 180835 | 204708
14 | 45:29.34 | 2:25.61 | 204709 | 215644
Track 1
Filename C:\Users\porcupine\Desktop\EAC\01 - Praise Songs for Elegua.wav
Pre-gap length 0:00:02.00
Peak level 69.4 %
Extraction speed 1.7 X
Track quality 100.0 %
Test CRC 44EA0A47
Copy CRC 44EA0A47
Accurately ripped (confidence 1) [757887BE] (AR v2)
Copy OK
Track 2
Filename C:\Users\porcupine\Desktop\EAC\02 - Rumba de Cajon.wav
Peak level 64.1 %
Extraction speed 2.1 X
Track quality 100.0 %
Test CRC 20BC8645
Copy CRC 20BC8645
Accurately ripped (confidence 1) [639C4516] (AR v2)
Copy OK
Track 3
Filename C:\Users\porcupine\Desktop\EAC\03 - Sanctus I.wav
Peak level 99.9 %
Extraction speed 2.9 X
Track quality 100.0 %
Test CRC 58D6114B
Copy CRC 58D6114B
Accurately ripped (confidence 1) [8DAAB7E1] (AR v2)
Copy OK
Track 4
Filename C:\Users\porcupine\Desktop\EAC\04 - Kyrie.wav
Peak level 99.9 %
Extraction speed 3.3 X
Track quality 100.0 %
Test CRC 0FB9E709
Copy CRC 0FB9E709
Accurately ripped (confidence 1) [4F094D23] (AR v2)
Copy OK
Track 5
Filename C:\Users\porcupine\Desktop\EAC\05 - Gloria.wav
Peak level 99.9 %
Extraction speed 3.5 X
Track quality 100.0 %
Test CRC 3D0FCC16
Copy CRC 3D0FCC16
Accurately ripped (confidence 1) [626DBEFA] (AR v2)
Copy OK
Track 6
Filename C:\Users\porcupine\Desktop\EAC\06 - Praise Song for Yemaya.wav
Peak level 99.9 %
Extraction speed 3.8 X
Track quality 100.0 %
Test CRC 9B293DEB
Copy CRC 9B293DEB
Accurately ripped (confidence 1) [D56CC918] (AR v2)
Copy OK
Track 7
Filename C:\Users\porcupine\Desktop\EAC\07 - Credo.wav
Pre-gap length 0:00:01.02
Peak level 99.9 %
Extraction speed 4.2 X
Track quality 100.0 %
Test CRC AEE00870
Copy CRC AEE00870
Accurately ripped (confidence 1) [A59F9FA9] (AR v2)
Copy OK
Track 8
Filename C:\Users\porcupine\Desktop\EAC\08 - Piano into Crucifixus.wav
Pre-gap length 0:00:01.00
Peak level 57.8 %
Extraction speed 2.9 X
Track quality 100.0 %
Test CRC B0998784
Copy CRC B0998784
Accurately ripped (confidence 1) [7EB156C0] (AR v2)
Copy OK
Track 9
Filename C:\Users\porcupine\Desktop\EAC\09 - Crucifixus.wav
Peak level 99.9 %
Extraction speed 4.1 X
Track quality 100.0 %
Test CRC 584451BE
Copy CRC 584451BE
Accurately ripped (confidence 1) [530C6C25] (AR v2)
Copy OK
Track 10
Filename C:\Users\porcupine\Desktop\EAC\10 - Toque de Osun.wav
Peak level 74.0 %
Extraction speed 2.8 X
Track quality 100.0 %
Test CRC 530A92F0
Copy CRC 530A92F0
Accurately ripped (confidence 1) [A0E7D225] (AR v2)
Copy OK
Track 11
Filename C:\Users\porcupine\Desktop\EAC\11 - Praise Song for Obatala.wav
Peak level 99.9 %
Extraction speed 4.6 X
Track quality 100.0 %
Test CRC 5744103C
Copy CRC 5744103C
Accurately ripped (confidence 1) [EB0DDA2D] (AR v2)
Copy OK
Track 12
Filename C:\Users\porcupine\Desktop\EAC\12 - Padre Nuestro.wav
Pre-gap length 0:00:01.00
Peak level 98.3 %
Extraction speed 4.7 X
Track quality 100.0 %
Test CRC C9AE708B
Copy CRC C9AE708B
Accurately ripped (confidence 1) [7096A042] (AR v2)
Copy OK
Track 13
Filename C:\Users\porcupine\Desktop\EAC\13 - Agnus Dei.wav
Peak level 99.9 %
Extraction speed 5.0 X
Track quality 100.0 %
Test CRC A0E93A18
Copy CRC A0E93A18
Accurately ripped (confidence 1) [9979FEFB] (AR v2)
Copy OK
Track 14
Filename C:\Users\porcupine\Desktop\EAC\14 - Sagnus II.wav
Peak level 99.5 %
Extraction speed 4.6 X
Track quality 100.0 %
Test CRC FA70ED21
Copy CRC FA70ED21
Accurately ripped (confidence 1) [62DF468B] (AR v2)
Copy OK
All tracks accurately ripped
No errors occurred
End of status report
==== Log checksum 33017BC60CCA23CEB05E3692AD6531CDCEEA1A0B986415A99CAB9FAAAF9FE398 ====
 
Содержание индексной карты (.CUE)
REM GENRE Latin
REM DATE 1997
REM DISCID AC0B3B0E
REM COMMENT "ExactAudioCopy v1.0b2"
PERFORMER "Nueva Manteca"
TITLE "Afro Cuban Sanctus Miss Salsa"
FILE "01 - Praise Songs for Elegua.wav" WAVE
TRACK 01 AUDIO
TITLE "Praise Songs for Elegua"
PERFORMER "Nueva Manteca"
INDEX 01 00:00:00
FILE "02 - Rumba de Cajon.wav" WAVE
TRACK 02 AUDIO
TITLE "Rumba de Cajon"
PERFORMER "Nueva Manteca"
INDEX 01 00:00:00
FILE "03 - Sanctus I.wav" WAVE
TRACK 03 AUDIO
TITLE "Sanctus I"
PERFORMER "Nueva Manteca"
INDEX 01 00:00:00
FILE "04 - Kyrie.wav" WAVE
TRACK 04 AUDIO
TITLE "Kyrie"
PERFORMER "Nueva Manteca"
INDEX 01 00:00:00
FILE "05 - Gloria.wav" WAVE
TRACK 05 AUDIO
TITLE "Gloria"
PERFORMER "Nueva Manteca"
INDEX 01 00:00:00
FILE "06 - Praise Song for Yemaya.wav" WAVE
TRACK 06 AUDIO
TITLE "Praise Song for Yemaya"
PERFORMER "Nueva Manteca"
INDEX 01 00:00:00
TRACK 07 AUDIO
TITLE "Credo"
PERFORMER "Nueva Manteca"
INDEX 00 04:47:15
FILE "07 - Credo.wav" WAVE
INDEX 01 00:00:00
TRACK 08 AUDIO
TITLE "Piano into Crucifixus"
PERFORMER "Nueva Manteca"
INDEX 00 06:03:33
FILE "08 - Piano into Crucifixus.wav" WAVE
INDEX 01 00:00:00
FILE "09 - Crucifixus.wav" WAVE
TRACK 09 AUDIO
TITLE "Crucifixus"
PERFORMER "Nueva Manteca"
INDEX 01 00:00:00
FILE "10 - Toque de Osun.wav" WAVE
TRACK 10 AUDIO
TITLE "Toque de Osun"
PERFORMER "Nueva Manteca"
INDEX 01 00:00:00
FILE "11 - Praise Song for Obatala.wav" WAVE
TRACK 11 AUDIO
TITLE "Praise Song for Obatala"
PERFORMER "Nueva Manteca"
INDEX 01 00:00:00
TRACK 12 AUDIO
TITLE "Padre Nuestro"
PERFORMER "Nueva Manteca"
INDEX 00 04:30:53
FILE "12 - Padre Nuestro.wav" WAVE
INDEX 01 00:00:00
FILE "13 - Agnus Dei.wav" WAVE
TRACK 13 AUDIO
TITLE "Agnus Dei"
PERFORMER "Nueva Manteca"
INDEX 01 00:00:00
FILE "14 - Sagnus II.wav" WAVE
TRACK 14 AUDIO
TITLE "Sagnus II"
PERFORMER "Nueva Manteca"
INDEX 01 00:00:00
02:51
286
Нет комментариев. Ваш будет первым!