Поиск

(Ethnic Jazz) Kazu Matsui - Bamboo - 2002, FLAC (image+.cue), lossless

(Ethnic Jazz) Kazu Matsui - Bamboo - 2002, FLAC (image+.cue), lossless
Треклист:
Kazu Matsui / Bamboo
Жанр: Ethnic Jazz, Fusion
Страна-производитель диска: USA
Год издания диска: 2002
Издатель (лейбл): Narada Productions Inc.
Номер по каталогу: 72438-11625-2-1
Страна: USA
Аудиокодек: FLAC (*.flac)
Тип рипа: image+.cue
Битрейт аудио: lossless
Продолжительность: 47:07
Источник (релизер): СОБСТВЕННЫЙ RIP
Наличие сканов в содержимом раздачи: нет
Треклист:
1. Shrine 3:46
2. Black Bird & The Bamboo Forest 4:27
3. Small Monk, Opening The Gate 4:42
4. Sign Of The Snow Crane 5:56
5. Dancing In The Remaining Lights 5:29
6. Talking With Rice Spirit 4:49
7. Up In The Sky 4:44
8. Legend Of The Lake 4:06
9. Riding With The Sword 4:24
10. The Desert 4:41
 
Лог создания рипа
X Lossless Decoder version 20120120 (139.0)
XLD extraction logfile from 2012-02-19 19:55:21 +0000
Kazu Matsui / Bamboo
Used drive : MATSHITA DVD-R UJ-868 (revision KB19)
Ripper mode : XLD Secure Ripper
Disable audio cache : OK for the drive with a cache less than 1375KiB
Make use of C2 pointers : NO
Read offset correction : 102
Max retry count : 20
Gap status : Analyzed, Appended
TOC of the extracted CD
Track | Start | Length | Start sector | End sector
---------------------------------------------------------
1 | 00:00:00 | 03:46:37 | 0 | 16986
2 | 03:46:37 | 04:27:18 | 16987 | 37029
3 | 08:13:55 | 04:42:05 | 37030 | 58184
4 | 12:55:60 | 05:56:62 | 58185 | 84946
5 | 18:52:47 | 05:29:15 | 84947 | 109636
6 | 24:21:62 | 04:49:30 | 109637 | 131341
7 | 29:11:17 | 04:44:00 | 131342 | 152641
8 | 33:55:17 | 04:06:30 | 152642 | 171121
9 | 38:01:47 | 04:24:03 | 171122 | 190924
10 | 42:25:50 | 04:41:62 | 190925 | 212061
AccurateRip Summary
Disc not found in AccurateRip DB.
All Tracks
Filename : /Volumes/SERGEY'S IP/Music/KAZU MATSUI Bamboo/01 Kazu Matsui - Bamboo.flac
Album gain : -5.28 dB
Peak : 0.966095
CRC32 hash (test run) : 755CDB0C
CRC32 hash : 755CDB0C
CRC32 hash (skip zero) : 140E182A
Statistics
Read error : 0
Jitter error (maybe fixed) : 0
Retry sector count : 0
Damaged sector count : 0
Track 01
Pre-gap length : 00:02:00
Track gain : -5.71 dB
Peak : 0.966095
CRC32 hash (test run) : 29CC1F76
CRC32 hash : 29CC1F76
CRC32 hash (skip zero) : DC472688
AccurateRip signature : 85F4F0F7
->Track not present in AccurateRip database.
Statistics
Read error : 0
Jitter error (maybe fixed) : 0
Retry sector count : 0
Damaged sector count : 0
Track 02
Pre-gap length : 00:01:67
Track gain : -5.69 dB
Peak : 0.966095
CRC32 hash (test run) : 9C1D80CE
CRC32 hash : 9C1D80CE
CRC32 hash (skip zero) : BC5E1EB5
AccurateRip signature : 27D96B88
->Track not present in AccurateRip database.
Statistics
Read error : 0
Jitter error (maybe fixed) : 0
Retry sector count : 0
Damaged sector count : 0
Track 03
Pre-gap length : 00:01:35
Track gain : -4.78 dB
Peak : 0.966064
CRC32 hash (test run) : B9D4493E
CRC32 hash : B9D4493E
CRC32 hash (skip zero) : 483E2E96
AccurateRip signature : 1145A7E5
->Track not present in AccurateRip database.
Statistics
Read error : 0
Jitter error (maybe fixed) : 0
Retry sector count : 0
Damaged sector count : 0
Track 04
Pre-gap length : 00:01:65
Track gain : -5.86 dB
Peak : 0.966095
CRC32 hash (test run) : DD46C287
CRC32 hash : DD46C287
CRC32 hash (skip zero) : 8FAE6D6F
AccurateRip signature : B8045A5E
->Track not present in AccurateRip database.
Statistics
Read error : 0
Jitter error (maybe fixed) : 0
Retry sector count : 0
Damaged sector count : 0
Track 05
Pre-gap length : 00:01:37
Track gain : -4.29 dB
Peak : 0.960541
CRC32 hash (test run) : DA72DECC
CRC32 hash : DA72DECC
CRC32 hash (skip zero) : 859FB802
AccurateRip signature : 5930F828
->Track not present in AccurateRip database.
Statistics
Read error : 0
Jitter error (maybe fixed) : 0
Retry sector count : 0
Damaged sector count : 0
Track 06
Pre-gap length : 00:01:17
Track gain : -2.77 dB
Peak : 0.966095
CRC32 hash (test run) : 10FEC6AF
CRC32 hash : 10FEC6AF
CRC32 hash (skip zero) : 6F4ED022
AccurateRip signature : 97B0083C
->Track not present in AccurateRip database.
Statistics
Read error : 0
Jitter error (maybe fixed) : 0
Retry sector count : 0
Damaged sector count : 0
Track 07
Pre-gap length : 00:01:27
Track gain : -5.95 dB
Peak : 0.966064
CRC32 hash (test run) : 32D0AEB4
CRC32 hash : 32D0AEB4
CRC32 hash (skip zero) : 3253B0B4
AccurateRip signature : ACA8790C
->Track not present in AccurateRip database.
Statistics
Read error : 0
Jitter error (maybe fixed) : 0
Retry sector count : 0
Damaged sector count : 0
Track 08
Pre-gap length : 00:01:47
Track gain : -6.01 dB
Peak : 0.966064
CRC32 hash (test run) : BE801366
CRC32 hash : BE801366
CRC32 hash (skip zero) : 95876620
AccurateRip signature : E6D24DE3
->Track not present in AccurateRip database.
Statistics
Read error : 0
Jitter error (maybe fixed) : 0
Retry sector count : 0
Damaged sector count : 0
Track 09
Track gain : -3.62 dB
Peak : 0.966095
CRC32 hash (test run) : F38D7E6C
CRC32 hash : F38D7E6C
CRC32 hash (skip zero) : 5B85C52A
AccurateRip signature : C196DAE3
->Track not present in AccurateRip database.
Statistics
Read error : 0
Jitter error (maybe fixed) : 0
Retry sector count : 0
Damaged sector count : 0
Track 10
Pre-gap length : 00:01:40
Track gain : -5.71 dB
Peak : 0.966064
CRC32 hash (test run) : 645E49D4
CRC32 hash : 645E49D4
CRC32 hash (skip zero) : 5222F5A0
AccurateRip signature : F3443B25
->Track not present in AccurateRip database.
Statistics
Read error : 0
Jitter error (maybe fixed) : 0
Retry sector count : 0
Damaged sector count : 0
No errors occurred
End of status report
01:51
336
Нет комментариев. Ваш будет первым!