Поиск

(Latin Jazz) Marcos Valle — Samba '68 (1967) — 1999, FLAC (tracks+.cue) lossless

Marcos Valle — Samba '68 (1967)
Жанр: Latin Jazz
Год издания диска: 1999
Лейбл: Verve
Номер по каталогу: 314 559 516-2
Аудио кодек: FLAC (*.flac)
Тип рипа: tracks+.cue
Битрейт аудио: lossless
Продолжительность: 27:27
Риппер: mishka1981
Сканы есть
Треклист:
01. The Answer (2:45)
02. Crickets Sing For Anamaria (2:09)
03. So Nice (Summer Samba) (2:31)
04. Chup Chup, I Got Away (2:18)
05. If You Went Away (2:55)
06. Pepino Beach (1:55)
07. She Told Me, She Told Me (2:44)
08. It's Time To Sing (2:54)
09. Batucada (2:06)
10. The Face I Love (1:59)
11. Safely In Your Arms (3:10)
 
 
Лог создания рипа
Exact Audio Copy V1.0 beta 1 from 15. November 2010
EAC extraction logfile from 4. May 2011, 16:07
Marcos Valle / Samba '68
Used drive : TSSTcorpCDDVDW TS-L633A Adapter: 3 ID: 0
Read mode : Secure
Utilize accurate stream : Yes
Defeat audio cache : Yes
Make use of C2 pointers : No
Read offset correction : 6
Overread into Lead-In and Lead-Out : No
Fill up missing offset samples with silence : Yes
Delete leading and trailing silent blocks : No
Null samples used in CRC calculations : Yes
Used interface : Installed external ASPI interface
Gap handling : Appended to previous track
Used output format : User Defined Encoder
Selected bitrate : 896 kBit/s
Quality : High
Add ID3 tag : No
Command line compressor : C:\Program Files\Exact Audio Copy\FLAC\FLAC.EXE
Additional command line options : -8 -V -T "ARTIST=%a" -T "TITLE=%t" -T "ALBUM=%g" -T "DATE=%y" -T "TRACKNUMBER=%n" -T "TOTALTRACKS=%x" -T "GENRE=%m" -T "ALBUMARTIST=%v" -T "ALBUM ARTIST=%v" -T "COMMENT=EAC Secure Mode, Test & Copy, AccurateRip, FLAC -8" %s
TOC of the extracted CD
Track | Start | Length | Start sector | End sector
---------------------------------------------------------
1 | 0:00.00 | 2:45.20 | 0 | 12394
2 | 2:45.20 | 2:09.10 | 12395 | 22079
3 | 4:54.30 | 2:31.07 | 22080 | 33411
4 | 7:25.37 | 2:18.10 | 33412 | 43771
5 | 9:43.47 | 2:55.13 | 43772 | 56909
6 | 12:38.60 | 1:55.32 | 56910 | 65566
7 | 14:34.17 | 2:44.33 | 65567 | 77899
8 | 17:18.50 | 2:54.20 | 77900 | 90969
9 | 20:12.70 | 2:05.40 | 90970 | 100384
10 | 22:18.35 | 1:58.52 | 100385 | 109286
11 | 24:17.12 | 3:09.60 | 109287 | 123521
Track 1
Filename C:\MY RIPS\01 - The Answer.wav
Pre-gap length 0:00:02.00
Peak level 100.0 %
Extraction speed 1.0 X
Track quality 100.0 %
Test CRC 6992D2A3
Copy CRC 6992D2A3
Cannot be verified as accurate (confidence 5) [4124AE71], AccurateRip returned [9669B90A]
Copy OK
Track 2
Filename C:\MY RIPS\02 - Crickets Sing For Anamaria.wav
Pre-gap length 0:00:03.00
Peak level 99.2 %
Extraction speed 1.0 X
Track quality 100.0 %
Test CRC 65DAB02B
Copy CRC 65DAB02B
Cannot be verified as accurate (confidence 5) [9C947F1F], AccurateRip returned [910B5203]
Copy OK
Track 3
Filename C:\MY RIPS\03 - So Nice (Summer Samba).wav
Pre-gap length 0:00:01.03
Peak level 100.0 %
Extraction speed 0.8 X
Track quality 99.9 %
Test CRC D56CAC15
Copy CRC D56CAC15
Cannot be verified as accurate (confidence 5) [BAC29464], AccurateRip returned [BCA0A6C3]
Copy OK
Track 4
Filename C:\MY RIPS\04 - Chup Chup, I Got Away.wav
Pre-gap length 0:00:01.57
Peak level 97.7 %
Extraction speed 0.8 X
Track quality 99.9 %
Test CRC 85E62379
Copy CRC 85E62379
Cannot be verified as accurate (confidence 5) [38EDFA47], AccurateRip returned [8D8FD4AE]
Copy OK
Track 5
Filename C:\MY RIPS\05 - If You Went Away.wav
Pre-gap length 0:00:02.67
Peak level 100.0 %
Extraction speed 1.2 X
Track quality 100.0 %
Test CRC 5AE566D7
Copy CRC 5AE566D7
Cannot be verified as accurate (confidence 5) [6097B9DD], AccurateRip returned [9FC41BED]
Copy OK
Track 6
Filename C:\MY RIPS\06 - Pepino Beach.wav
Pre-gap length 0:00:02.65
Peak level 100.0 %
Extraction speed 1.1 X
Track quality 100.0 %
Test CRC 26FE539E
Copy CRC 26FE539E
Cannot be verified as accurate (confidence 6) [C95ABED3], AccurateRip returned [A82D90C2]
Copy OK
Track 7
Filename C:\MY RIPS\07 - She Told Me, She Told Me.wav
Pre-gap length 0:00:03.47
Peak level 99.9 %
Extraction speed 1.3 X
Track quality 100.0 %
Test CRC EBF860D3
Copy CRC EBF860D3
Cannot be verified as accurate (confidence 5) [BA032A44], AccurateRip returned [E0DCB5D3]
Copy OK
Track 8
Filename C:\MY RIPS\08 - It's Time To Sing.wav
Pre-gap length 0:00:01.65
Peak level 94.8 %
Extraction speed 1.4 X
Track quality 100.0 %
Test CRC 28F58E86
Copy CRC 28F58E86
Cannot be verified as accurate (confidence 5) [3DE716C9], AccurateRip returned [3072FCB1]
Copy OK
Track 9
Filename C:\MY RIPS\09 - Batucada.wav
Pre-gap length 0:00:03.35
Peak level 99.2 %
Extraction speed 0.9 X
Track quality 99.9 %
Test CRC 1F05E44D
Copy CRC 1F05E44D
Cannot be verified as accurate (confidence 5) [EBBBB79A], AccurateRip returned [80EDE66F]
Copy OK
Track 10
Filename C:\MY RIPS\10 - The Face I Love.wav
Pre-gap length 0:00:04.38
Peak level 100.0 %
Extraction speed 1.4 X
Track quality 100.0 %
Test CRC F65D8A76
Copy CRC F65D8A76
Cannot be verified as accurate (confidence 5) [527C4CD6], AccurateRip returned [D88CC60F]
Copy OK
Track 11
Filename C:\MY RIPS\11 - Safely In Your Arms.wav
Pre-gap length 0:00:02.47
Peak level 100.0 %
Extraction speed 1.5 X
Track quality 100.0 %
Test CRC EA506A84
Copy CRC EA506A84
Cannot be verified as accurate (confidence 5) [6714AFF1], AccurateRip returned [6039E859]
Copy OK
No tracks could be verified as accurate
You may have a different pressing from the one(s) in the database
No errors occurred
End of status report
==== Log checksum D97BD02ADE0FB207C6732E6BB609B3DC96CBC2A325DD5C299F3AA5007EC22954 ====
 
Содержание индексной карты (.CUE)
REM GENRE "Bossa Nova"
REM DATE 1967
REM DISCID 8C066E0B
REM COMMENT "ExactAudioCopy v1.0b1"
PERFORMER "Marcos Valle"
TITLE "Samba '68"
FILE "01 - The Answer.wav" WAVE
TRACK 01 AUDIO
TITLE "The Answer"
PERFORMER "Marcos Valle"
INDEX 01 00:00:00
TRACK 02 AUDIO
TITLE "Crickets Sing For Anamaria"
PERFORMER "Marcos Valle"
INDEX 00 02:42:20
FILE "02 - Crickets Sing For Anamaria.wav" WAVE
INDEX 01 00:00:00
TRACK 03 AUDIO
TITLE "So Nice (Summer Samba)"
PERFORMER "Marcos Valle"
INDEX 00 02:08:07
FILE "03 - So Nice (Summer Samba).wav" WAVE
INDEX 01 00:00:00
TRACK 04 AUDIO
TITLE "Chup Chup, I Got Away"
PERFORMER "Marcos Valle"
INDEX 00 02:29:25
FILE "04 - Chup Chup, I Got Away.wav" WAVE
INDEX 01 00:00:00
TRACK 05 AUDIO
TITLE "If You Went Away"
PERFORMER "Marcos Valle"
INDEX 00 02:15:18
FILE "05 - If You Went Away.wav" WAVE
INDEX 01 00:00:00
TRACK 06 AUDIO
TITLE "Pepino Beach"
PERFORMER "Marcos Valle"
INDEX 00 02:52:23
FILE "06 - Pepino Beach.wav" WAVE
INDEX 01 00:00:00
TRACK 07 AUDIO
TITLE "She Told Me, She Told Me"
PERFORMER "Marcos Valle"
INDEX 00 01:51:60
FILE "07 - She Told Me, She Told Me.wav" WAVE
INDEX 01 00:00:00
TRACK 08 AUDIO
TITLE "It's Time To Sing"
PERFORMER "Marcos Valle"
INDEX 00 02:42:43
FILE "08 - It's Time To Sing.wav" WAVE
INDEX 01 00:00:00
TRACK 09 AUDIO
TITLE "Batucada"
PERFORMER "Marcos Valle"
INDEX 00 02:50:60
FILE "09 - Batucada.wav" WAVE
INDEX 01 00:00:00
TRACK 10 AUDIO
TITLE "The Face I Love"
PERFORMER "Marcos Valle"
INDEX 00 02:01:02
FILE "10 - The Face I Love.wav" WAVE
INDEX 01 00:00:00
TRACK 11 AUDIO
TITLE "Safely In Your Arms"
PERFORMER "Marcos Valle"
INDEX 00 01:56:05
FILE "11 - Safely In Your Arms.wav" WAVE
INDEX 01 00:00:00
21:39
514
Нет комментариев. Ваш будет первым!