Поиск

(Brazilian Jazz, Bossa Nova) Cristina Braga - Harpa Brasileira - 2004, FLAC (tracks+.cue) lossless

(Brazilian Jazz, Bossa Nova) Cristina Braga - Harpa Brasileira - 2004, FLAC (tracks+.cue) lossless
Треклист:
Cristina Braga - Harpa Brasileira
Жанр: Brazilian Jazz, Bossa Nova
Страна-производитель диска: Brazil
Год издания диска: 2004
Издатель (лейбл): Kuarup Discos
Номер по каталогу: KCD-189
Аудио кодек: FLAC (*.flac)
Тип рипа: tracks+.cue
Битрейт аудио: lossless
Продолжительность: 00:45:41
Источник (релизер): GatoMedio
Наличие сканов в содержимом раздачи: нет
Треклист:
01 - Manhã De Carnaval (Luiz Bonfá, Antonio Maria) 3:55
02 - Insensatez (Tom Jobim, Vinicius de Moraes) 4:57
03 - Derradeira Primaveira (Tom Jobim, Vinicius de Moraes) 6:59
04 - Baião Malandro (Egberto Gismonti) 3:21
05 - O Trenzinho Do Caipira (Heitor Villa Lobos) 3:33
06 - Assum Preto (Luiz Gonzaga, Humberto Teixeira) 4:31
07 - Corcovado (Tom Jobim) 5:57
08 - O Gaúcho (Chiquinha Gonzaga) 3:31
09 - Maria Rita (Cesar Camargo Mariano) 2:44
10 - O Canto Do Cisne Negro (Heitor Villa Lobos) 2:27
11 - Beatriz (Edu Lobo, Chico Buarque) 3:40
The Players:
* Cristina Braga - harpa e voz || harp and vocals
* Ricardo Medeiros - violão baixo || bass guitar
* Marcos Zama - percussão || percussion
* Joca Moraes - bateria || drums
Convidado especial || Special guest:
* Mestre Paulão - percussão || percussion
Gravado e Mixado em fevereiro e março de 2004, nos Estúdios Mosaico (Camboinhas) e Zaga (Ipanema) no Rio de Janeiro, por Fernando Hungria, Javier Naszewski, Renato Munhoz e Daniel Muzy.
Produzido por Ricardo Medeiros
 
Лог создания рипа (EAC Log)
Exact Audio Copy V0.99 prebeta 5 from 4. May 2009
EAC extraction logfile from 4. August 2010, 11:45
Cristina Braga / Harpa Brasileira
Used drive : HL-DT-STDVD-RAM GSA-H55N Adapter: 0 ID: 0
Read mode : Secure
Utilize accurate stream : Yes
Defeat audio cache : Yes
Make use of C2 pointers : No
Read offset correction : 102
Overread into Lead-In and Lead-Out : No
Fill up missing offset samples with silence : Yes
Delete leading and trailing silent blocks : No
Null samples used in CRC calculations : No
Used interface : Native Win32 interface for Win NT & 2000
Gap handling : Appended to previous track
Used output format : Internal WAV Routines
Sample format : 44.100 Hz; 16 Bit; Stereo
TOC of the extracted CD
Track | Start | Length | Start sector | End sector
---------------------------------------------------------
1 | 0:00.00 | 3:55.57 | 0 | 17681
2 | 3:55.57 | 4:57.68 | 17682 | 40024
3 | 8:53.50 | 6:59.10 | 40025 | 71459
4 | 15:52.60 | 3:21.12 | 71460 | 86546
5 | 19:13.72 | 3:33.73 | 86547 | 102594
6 | 22:47.70 | 4:31.65 | 102595 | 122984
7 | 27:19.60 | 5:57.65 | 122985 | 149824
8 | 33:17.50 | 3:31.12 | 149825 | 165661
9 | 36:48.62 | 2:44.20 | 165662 | 177981
10 | 39:33.07 | 2:27.63 | 177982 | 189069
11 | 42:00.70 | 3:40.07 | 189070 | 205576
Track 1
Filename D:\_Music myRips\Cristina Braga - Harpa Brasileira\wav\01 - Manhã de Carnaval.wav
Pre-gap length 0:00:02.00
Peak level 97.4 %
Track quality 99.9 %
Test CRC B2121E66
Copy CRC B2121E66
Track not present in AccurateRip database
Copy OK
Track 2
Filename D:\_Music myRips\Cristina Braga - Harpa Brasileira\wav\02 - Insensatez.wav
Pre-gap length 0:00:02.00
Peak level 97.4 %
Track quality 99.9 %
Test CRC 56A0A165
Copy CRC 56A0A165
Track not present in AccurateRip database
Copy OK
Track 3
Filename D:\_Music myRips\Cristina Braga - Harpa Brasileira\wav\03 - Derradeira Primavera.wav
Pre-gap length 0:00:02.00
Peak level 100.0 %
Track quality 99.9 %
Test CRC 91F38161
Copy CRC 91F38161
Track not present in AccurateRip database
Copy OK
Track 4
Filename D:\_Music myRips\Cristina Braga - Harpa Brasileira\wav\04 - Baião Malandro.wav
Peak level 97.4 %
Track quality 100.0 %
Test CRC 1D55B8A3
Copy CRC 1D55B8A3
Track not present in AccurateRip database
Copy OK
Track 5
Filename D:\_Music myRips\Cristina Braga - Harpa Brasileira\wav\05 - O Trenzinho do Caipira.wav
Pre-gap length 0:00:02.01
Peak level 96.3 %
Track quality 100.0 %
Test CRC E6A987AE
Copy CRC E6A987AE
Track not present in AccurateRip database
Copy OK
Track 6
Filename D:\_Music myRips\Cristina Braga - Harpa Brasileira\wav\06 - Assum Preto.wav
Pre-gap length 0:00:00.74
Peak level 100.0 %
Track quality 100.0 %
Test CRC E916F237
Copy CRC E916F237
Track not present in AccurateRip database
Copy OK
Track 7
Filename D:\_Music myRips\Cristina Braga - Harpa Brasileira\wav\07 - Corcovado.wav
Pre-gap length 0:00:02.00
Peak level 96.9 %
Track quality 100.0 %
Test CRC 69BC0922
Copy CRC 69BC0922
Track not present in AccurateRip database
Copy OK
Track 8
Filename D:\_Music myRips\Cristina Braga - Harpa Brasileira\wav\08 - O Gaúcho.wav
Pre-gap length 0:00:02.00
Peak level 97.4 %
Track quality 99.9 %
Test CRC 7A39ECB2
Copy CRC 7A39ECB2
Track not present in AccurateRip database
Copy OK
Track 9
Filename D:\_Music myRips\Cristina Braga - Harpa Brasileira\wav\09 - Maria Rita.wav
Pre-gap length 0:00:02.00
Peak level 96.8 %
Track quality 100.0 %
Test CRC CC53F0FD
Copy CRC CC53F0FD
Track not present in AccurateRip database
Copy OK
Track 10
Filename D:\_Music myRips\Cristina Braga - Harpa Brasileira\wav\10 - O Canto do Cisne Negro.wav
Pre-gap length 0:00:02.05
Peak level 86.3 %
Track quality 100.0 %
Test CRC A730619C
Copy CRC A730619C
Track not present in AccurateRip database
Copy OK
Track 11
Filename D:\_Music myRips\Cristina Braga - Harpa Brasileira\wav\11 - Beatriz.wav
Pre-gap length 0:00:02.02
Peak level 96.9 %
Track quality 100.0 %
Test CRC 7582DDD0
Copy CRC 7582DDD0
Track not present in AccurateRip database
Copy OK
None of the tracks are present in the AccurateRip database
No errors occurred
End of status report
 
Содержание индексной карты (.CUE)
REM GENRE Instrumental
REM DATE 2004
REM DISCID 950AB50B
REM COMMENT "ExactAudioCopy v0.99pb5"
PERFORMER "Cristina Braga"
TITLE "Harpa Brasileira"
FILE "01 - Manhг de Carnaval.wav" WAVE
TRACK 01 AUDIO
TITLE "Manhг de Carnaval"
PERFORMER "Cristina Braga"
INDEX 01 00:00:00
TRACK 02 AUDIO
TITLE "Insensatez"
PERFORMER "Cristina Braga"
INDEX 00 03:53:57
FILE "02 - Insensatez.wav" WAVE
INDEX 01 00:00:00
TRACK 03 AUDIO
TITLE "Derradeira Primavera"
PERFORMER "Cristina Braga"
INDEX 00 04:55:68
FILE "03 - Derradeira Primavera.wav" WAVE
INDEX 01 00:00:00
FILE "04 - Baiгo Malandro.wav" WAVE
TRACK 04 AUDIO
TITLE "Baiгo Malandro"
PERFORMER "Cristina Braga"
INDEX 01 00:00:00
TRACK 05 AUDIO
TITLE "O Trenzinho do Caipira"
PERFORMER "Cristina Braga"
INDEX 00 03:19:11
FILE "05 - O Trenzinho do Caipira.wav" WAVE
INDEX 01 00:00:00
TRACK 06 AUDIO
TITLE "Assum Preto"
PERFORMER "Cristina Braga"
INDEX 00 03:32:74
FILE "06 - Assum Preto.wav" WAVE
INDEX 01 00:00:00
TRACK 07 AUDIO
TITLE "Corcovado"
PERFORMER "Cristina Braga"
INDEX 00 04:29:65
FILE "07 - Corcovado.wav" WAVE
INDEX 01 00:00:00
TRACK 08 AUDIO
TITLE "O Gaъcho"
PERFORMER "Cristina Braga"
INDEX 00 05:55:65
FILE "08 - O Gaъcho.wav" WAVE
INDEX 01 00:00:00
TRACK 09 AUDIO
TITLE "Maria Rita"
PERFORMER "Cristina Braga"
INDEX 00 03:29:12
FILE "09 - Maria Rita.wav" WAVE
INDEX 01 00:00:00
TRACK 10 AUDIO
TITLE "O Canto do Cisne Negro"
PERFORMER "Cristina Braga"
INDEX 00 02:42:15
FILE "10 - O Canto do Cisne Negro.wav" WAVE
INDEX 01 00:00:00
TRACK 11 AUDIO
TITLE "Beatriz"
PERFORMER "Cristina Braga"
INDEX 00 02:25:61
FILE "11 - Beatriz.wav" WAVE
INDEX 01 00:00:00
 
Об исполнителе

Cristina Braga (Rio de Janeiro, 1966) is a Brazilian harpist who started her musical career as a soloist of the Orquestra Sinfônica Brasileira and Orquestra Sinfônica Pró-Música da Petrobrás. Since 1993, she has been the principal harpist with the Municipal Theatre Symphony Orchestra of Rio de Janeiro. Her passion for her instrument has taken her to cover both classical and popular music. (~Egídio Leitão, musicabrasileira.org)
21:37
325
Нет комментариев. Ваш будет первым!