Поиск

(Latin Jazz) Luisito Quintero - Percussion Maddness - 2006, FLAC (tracks+.cue), lossless

(Latin Jazz) Luisito Quintero - Percussion Maddness - 2006, FLAC (tracks+.cue), lossless
Треклист:
Luisito Quintero - Percussion Maddness
Жанр: Latin Jazz
Год выпуска : 2006
Лейбл: Rapster
Аудио кодек: FLAC
Тип рипа: tracks+.cue
Битрейт аудио: lossless
Продолжительность: 01:17:37
Рип: What CD


01. Percussion Maddness (2:38)
02. Tumbao (6:50)
03. M'Bongi (2:39)
04. Gbagada, Gbagada, Gbogodo, Gbododo feat. Francis Mbappe (9:00)
05. Aquilas Coisas Todas (8:32)
06. Our Love feat. Anane (5:10)
07. Quintero's Jam feat. Hilton Ruiz (7:27)
08. EOL Intro (Clap Your Hands) (7:27)
09. Acid (5:26)
10. Four Beat Mambo (5:33)
11. Son Montuno (7:25)
12. Oshagrina (5:44)
13. Love Remains Tha Same feat. Blaze (3:47)

 
EAC
Exact Audio Copy V0.99 prebeta 5 from 4. May 2009
EAC extraction logfile from 14. May 2009, 9:01
Luisito Quintero / Percussion Maddness
Used drive : PLEXTOR DVDR PX-860A Adapter: 0 ID: 0
Read mode : Secure
Utilize accurate stream : Yes
Defeat audio cache : Yes
Make use of C2 pointers : No
Read offset correction : 96
Overread into Lead-In and Lead-Out : No
Fill up missing offset samples with silence : Yes
Delete leading and trailing silent blocks : No
Null samples used in CRC calculations : Yes
Used interface : Installed external ASPI interface
Gap handling : Appended to previous track
Used output format : User Defined Encoder
Selected bitrate : 128 kBit/s
Quality : High
Add ID3 tag : No
Command line compressor : C:\Program Files\FLAC\flac.exe
Additional command line options : -8 -V -T "ARTIST=%a" -T "TITLE=%t" -T "ALBUM=%g" -T "DATE=%y" -T "TRACKNUMBER=%n" -T "GENRE=%m" -T "COMMENT=EAC FLAC -8" %s
TOC of the extracted CD
Track | Start | Length | Start sector | End sector
---------------------------------------------------------
1 | 0:00.00 | 2:38.06 | 0 | 11855
2 | 2:38.06 | 6:50.24 | 11856 | 42629
3 | 9:28.30 | 2:39.11 | 42630 | 54565
4 | 12:07.41 | 8:59.60 | 54566 | 95050
5 | 21:07.26 | 8:31.70 | 95051 | 133445
6 | 29:39.21 | 5:09.59 | 133446 | 156679
7 | 34:49.05 | 7:26.57 | 156680 | 190186
8 | 42:15.62 | 7:27.18 | 190187 | 223729
9 | 49:43.05 | 5:26.01 | 223730 | 248180
10 | 55:09.06 | 5:33.11 | 248181 | 273166
11 | 60:42.17 | 7:24.49 | 273167 | 306515
12 | 68:06.66 | 5:44.20 | 306516 | 332335
13 | 73:51.11 | 3:46.60 | 332336 | 349345
Track 1
Filename G:\DL\Luisito Quintero - Percussion Maddness (2006) [FLAC] {Rapster Records RR0060CD}\01 - Percussion Maddness.wav
Pre-gap length 0:00:02.00
Peak level 98.8 %
Track quality 99.9 %
Test CRC 8AA552C1
Copy CRC 8AA552C1
Cannot be verified as accurate (confidence 3) [F7A0E134], AccurateRip returned [1E77A554]
Copy OK
Track 2
Filename G:\DL\Luisito Quintero - Percussion Maddness (2006) [FLAC] {Rapster Records RR0060CD}\02 - Tumbao.wav
Peak level 98.8 %
Track quality 100.0 %
Test CRC 355A702F
Copy CRC 355A702F
Cannot be verified as accurate (confidence 3) [42D3825B], AccurateRip returned [BAF2AEA8]
Copy OK
Track 3
Filename G:\DL\Luisito Quintero - Percussion Maddness (2006) [FLAC] {Rapster Records RR0060CD}\03 - M'Bongi.wav
Peak level 98.8 %
Track quality 100.0 %
Test CRC 2918C4AA
Copy CRC 2918C4AA
Cannot be verified as accurate (confidence 3) [458E71FC], AccurateRip returned [31DE08F9]
Copy OK
Track 4
Filename G:\DL\Luisito Quintero - Percussion Maddness (2006) [FLAC] {Rapster Records RR0060CD}\04 - Gbagada, Gbagada, Gbogodo, Gbododo feat. Francis Mbappe.wav
Peak level 100.0 %
Track quality 100.0 %
Test CRC 7749ECFE
Copy CRC 7749ECFE
Cannot be verified as accurate (confidence 3) [D460A5A6], AccurateRip returned [F22C5DDB]
Copy OK
Track 5
Filename G:\DL\Luisito Quintero - Percussion Maddness (2006) [FLAC] {Rapster Records RR0060CD}\05 - Aquilas Coisas Todas.wav
Peak level 98.8 %
Track quality 100.0 %
Test CRC 5F0602CE
Copy CRC 5F0602CE
Cannot be verified as accurate (confidence 3) [232B0295], AccurateRip returned [1F987795]
Copy OK
Track 6
Filename G:\DL\Luisito Quintero - Percussion Maddness (2006) [FLAC] {Rapster Records RR0060CD}\06 - Our Love feat. Anane.wav
Peak level 98.8 %
Track quality 99.9 %
Test CRC 49C57A7C
Copy CRC 49C57A7C
Cannot be verified as accurate (confidence 3) [E1CFC977], AccurateRip returned [22C4334A]
Copy OK
Track 7
Filename G:\DL\Luisito Quintero - Percussion Maddness (2006) [FLAC] {Rapster Records RR0060CD}\07 - Quintero's Jam feat. Hilton Ruiz.wav
Peak level 100.0 %
Track quality 100.0 %
Test CRC D39475E7
Copy CRC D39475E7
Cannot be verified as accurate (confidence 3) [989224B8], AccurateRip returned [91180E50]
Copy OK
Track 8
Filename G:\DL\Luisito Quintero - Percussion Maddness (2006) [FLAC] {Rapster Records RR0060CD}\08 - EOL Intro (Clap Your Hands).wav
Peak level 100.0 %
Track quality 100.0 %
Test CRC A5848501
Copy CRC A5848501
Cannot be verified as accurate (confidence 3) [63F161A4], AccurateRip returned [02BE5151]
Copy OK
Track 9
Filename G:\DL\Luisito Quintero - Percussion Maddness (2006) [FLAC] {Rapster Records RR0060CD}\09 - Acid.wav
Peak level 100.0 %
Track quality 100.0 %
Test CRC C7552377
Copy CRC C7552377
Cannot be verified as accurate (confidence 3) [560882A1], AccurateRip returned [56B63A05]
Copy OK
Track 10
Filename G:\DL\Luisito Quintero - Percussion Maddness (2006) [FLAC] {Rapster Records RR0060CD}\10 - Four Beat Mambo.wav
Peak level 100.0 %
Track quality 100.0 %
Test CRC BDC89D24
Copy CRC BDC89D24
Cannot be verified as accurate (confidence 3) [9F777B83], AccurateRip returned [7810F617]
Copy OK
Track 11
Filename G:\DL\Luisito Quintero - Percussion Maddness (2006) [FLAC] {Rapster Records RR0060CD}\11 - Son Montuno.wav
Peak level 98.8 %
Track quality 99.9 %
Test CRC 1E6FEC86
Copy CRC 1E6FEC86
Cannot be verified as accurate (confidence 3) [A538E5D8], AccurateRip returned [FCFBB2D6]
Copy OK
Track 12
Filename G:\DL\Luisito Quintero - Percussion Maddness (2006) [FLAC] {Rapster Records RR0060CD}\12 - Oshagrina.wav
Peak level 100.0 %
Track quality 99.8 %
Test CRC 36262097
Copy CRC 36262097
Cannot be verified as accurate (confidence 3) [00EA9463], AccurateRip returned [EF6C98D1]
Copy OK
Track 13
Filename G:\DL\Luisito Quintero - Percussion Maddness (2006) [FLAC] {Rapster Records RR0060CD}\13 - Love Remains Tha Same feat. Blaze.wav
Peak level 97.7 %
Track quality 99.4 %
Test CRC 960C666C
Copy CRC 960C666C
Cannot be verified as accurate (confidence 3) [C3BCB141], AccurateRip returned [A787FF62]
Copy OK
No tracks could be verified as accurate
You may have a different pressing from the one(s) in the database
No errors occurred
End of status report
 
CUE
REM GENRE Latin
REM DATE 2006
REM DISCID BA12310D
REM COMMENT "ExactAudioCopy v0.99pb5"
PERFORMER "Luisito Quintero"
TITLE "Percussion Maddness"
FILE "01 - Percussion Maddness.wav" WAVE
TRACK 01 AUDIO
TITLE "Percussion Maddness"
PERFORMER "Luisito Quintero"
INDEX 01 00:00:00
FILE "02 - Tumbao.wav" WAVE
TRACK 02 AUDIO
TITLE "Tumbao"
PERFORMER "Luisito Quintero"
INDEX 01 00:00:00
FILE "03 - M'Bongi.wav" WAVE
TRACK 03 AUDIO
TITLE "M'Bongi"
PERFORMER "Luisito Quintero"
INDEX 01 00:00:00
FILE "04 - Gbagada, Gbagada, Gbogodo, Gbododo feat. Francis Mbappe.wav" WAVE
TRACK 04 AUDIO
TITLE "Gbagada, Gbagada, Gbogodo, Gbododo feat. Francis Mbappe"
PERFORMER "Luisito Quintero"
INDEX 01 00:00:00
FILE "05 - Aquilas Coisas Todas.wav" WAVE
TRACK 05 AUDIO
TITLE "Aquilas Coisas Todas"
PERFORMER "Luisito Quintero"
INDEX 01 00:00:00
FILE "06 - Our Love feat. Anane.wav" WAVE
TRACK 06 AUDIO
TITLE "Our Love feat. Anane"
PERFORMER "Luisito Quintero"
INDEX 01 00:00:00
FILE "07 - Quintero's Jam feat. Hilton Ruiz.wav" WAVE
TRACK 07 AUDIO
TITLE "Quintero's Jam feat. Hilton Ruiz"
PERFORMER "Luisito Quintero"
INDEX 01 00:00:00
FILE "08 - EOL Intro (Clap Your Hands).wav" WAVE
TRACK 08 AUDIO
TITLE "EOL Intro (Clap Your Hands)"
PERFORMER "Luisito Quintero"
INDEX 01 00:00:00
FILE "09 - Acid.wav" WAVE
TRACK 09 AUDIO
TITLE "Acid"
PERFORMER "Luisito Quintero"
INDEX 01 00:00:00
FILE "10 - Four Beat Mambo.wav" WAVE
TRACK 10 AUDIO
TITLE "Four Beat Mambo"
PERFORMER "Luisito Quintero"
INDEX 01 00:00:00
FILE "11 - Son Montuno.wav" WAVE
TRACK 11 AUDIO
TITLE "Son Montuno"
PERFORMER "Luisito Quintero"
INDEX 01 00:00:00
FILE "12 - Oshagrina.wav" WAVE
TRACK 12 AUDIO
TITLE "Oshagrina"
PERFORMER "Luisito Quintero"
INDEX 01 00:00:00
FILE "13 - Love Remains Tha Same feat. Blaze.wav" WAVE
TRACK 13 AUDIO
TITLE "Love Remains Tha Same feat. Blaze"
PERFORMER "Luisito Quintero"
INDEX 01 00:00:00
 
Весьма большой состав

Aquiles Baez Guitar, Tres
Luis Bonilla Trombone
Milton Cardona Vocals (bckgr), Shekere, Lead
Marc Cary Fender Rhodes
Mike Ciro Guitar (Electric), Guitar (Rhythm), Soloist
Stephanie Cooke Vocals (bckgr)
Kaïssa Doumbé Vocals (bckgr)
Nelson Hernandez Horn Arrangements
Adam Hill Viola
Kevin "KAcey" Jones Vocals (bckgr), Handclapping, Producer, Djembe, Dun-dun, Ngoma, Shaker
Brian Lynch Trumpet, Flugelhorn
Jose Mangual Jr. Vocals (bckgr)
Francis Mbappe Bass, Guitar (Rhythm), Vocals, Vocals (bckgr), Vocal Arrangement
Ozzie Melendez Trombone
Albert Sterling Menendez Keyboards, Fender Rhodes, Soloist
Josh Milan Vocals, Vocals (bckgr), Soloist, Keyboard Harmonica
Shuichi Morita Vocal Overdubs
Gene Perez Bass
Carlos "Nene" Quintero Conga
Luisito Quintero Percussion, Bongos, Conga, Drums, Maracas, Timbales, Vocals (bckgr), Bells, Handclapping, Producer, Liner Notes, Djembe, Cajon, Dun-dun, Ngoma, Shaker, Shekere, Guiro, Toy Instruments, Crowd Noise
Ivan Renta Sax (Soprano), Sax (Tenor)
Carleen Robinson Vocals (bckgr)
Reuben Rodriguez Bass (Electric), Bass (Upright), Ampeg Baby Bass
Hilton Ruiz Piano
John Scarpulla Sax (Baritone), Sax (Tenor)
Nestor Torres Flute
Download available for power users only.
08:19
212
Нет комментариев. Ваш будет первым!