Поиск

(Bossa Nova/Latin Jazz) Clube Da Esquina - Vol. 1 - 1998, FLAC (image+.cue), lossless

Треклист:
Clube Da Esquina - Vol. 1
Жанр: Bossa Nova/Latin Jazz
Год выпуска диска: 1998
Производитель диска: Sonopress-Rimo Ind. e Com. Fonográfica Ltda. - EM0304981 - Brazil
Аудио кодек: FLAC
Тип рипа: image+.cue
Битрейт аудио: lossless
Продолжительность: 32:42
Трэклист:
1 - Cais (4:14)
2 - Nada Será Como Antes (3:58)
3 - Girassol da Cor do Seu Cabelo (5:01)
4 - Sede do Peixe (3:58)
5 - Gran Circo (3:56)
6 - Leila (Venha Ser Feliz) (2:39)
7 - Vinheta "Latas" (0:18)
8 - Maria Maria (3:38)
9 - Tarde (4:56)
 
Info
Clube da Esquina (in English "Corner's Club") was a Brazilian music artists collective, originating in the Brazilian state of Minas Gerais. It is also the name of a double album from 1972. The album (at least in its American release) is sold under the names of Milton Nascimento and Lô Borges.
Clube da Esquina mixes progressive rock, bossa nova and jazz styles, with Brazilian country music and classical music influences. The Beatles and The Platters were also an important influence on "Clube da Esquina".
Together with Tropicália, Clube da Esquina is usually regarded as the Brazilian musical movement that achieved the greatest international resonance in the post-bossa nova period (beginning in the late 1960s and early 1970s).
In 1963 Milton Nascimento moved from Três Pontas, in the midlands of the state of Minas Gerais, to the capital Belo Horizonte, looking for work. He settled at the Levy building, where the Borges Family, including Márcio Borges, already lived. One day, after watching François Truffaut's movie Jules et Jim three times in a row, Milton and Márcio started composing (Milton already played in some bars of Belo Horizonte): Márcio wrote the lyrics, and Milton wrote the music. Since then, Márcio always played a great role in the history of Clube de Esquina as lyricist, mainly together with, at a later stage, Fernando Brant. The first album (Clube da Esquina), from 1972, was followed by another one in 1978 (Clube da Esquina 2), that contains tracks written by authors that were not part of the group (e.g., Chico Buarque).
Musicians:
* Milton Nascimento
* 14 Bis
* Toninho Horta
* Tavinho Moura
* Lô Borges
* Beto Guedes
* Wagner Tiso
* Fernando Brant (lyricist)
* Nelson Ângelo
* Márcio Borges (lyricist)
* Flávio Venturini
 
EAC Log
Exact Audio Copy V0.99 prebeta 5 from 4. May 2009
EAC extraction logfile from 9. October 2009, 0:37
Clube da Esquina - Classicos Estado de Minas / Vol. 1
Used drive : HL-DT-STDVDRAM GH20NS15 Adapter: 0 ID: 0
Read mode : Secure
Utilize accurate stream : Yes
Defeat audio cache : Yes
Make use of C2 pointers : No
Read offset correction : 667
Overread into Lead-In and Lead-Out : No
Fill up missing offset samples with silence : Yes
Delete leading and trailing silent blocks : No
Null samples used in CRC calculations : Yes
Used interface : Installed external ASPI interface
Used output format : User Defined Encoder
Selected bitrate : 1024 kBit/s
Quality : High
Add ID3 tag : No
Command line compressor : C:\Program Files\Exact Audio Copy\Flac\flac.exe
Additional command line options : -8 -A tukey(0.25) -A gauss(0.1875) -b 4096 -V -T "artist=%a" -T "title=%t" -T "album=%g" -T "date=%y" -T "tracknumber=%n" -T "genre=%m" %s --sector-align
TOC of the extracted CD
Track | Start | Length | Start sector | End sector
---------------------------------------------------------
1 | 0:00.00 | 4:14.15 | 0 | 19064
2 | 4:14.15 | 3:58.00 | 19065 | 36914
3 | 8:12.15 | 5:01.37 | 36915 | 59526
4 | 13:13.52 | 3:58.53 | 59527 | 77429
5 | 17:12.30 | 3:56.65 | 77430 | 95194
6 | 21:09.20 | 2:39.70 | 95195 | 107189
7 | 23:49.15 | 0:18.35 | 107190 | 108574
8 | 24:07.50 | 3:38.10 | 108575 | 124934
9 | 27:45.60 | 4:57.02 | 124935 | 147211
Range status and errors
Selected range
Filename D:\Torrents.ru 3\Clube Da Esquina\Clube Da Esquina Vol. 1 (Clássicos Estado De Minas)\Clube Da Esquina Vol. 1 (Clássicos Estado De Minas).wav
Peak level 97.7 %
Range quality 99.9 %
Test CRC B0A81EA2
Copy CRC B0A81EA2
Copy OK
No errors occurred
End of status report
 
Audiochecker
AUDIOCHECKER v2.0 beta (build 457) - by Dester - opdester@freemail.hu
~~~~~~~~~~~~~~~~~~~~~~~~~~~~~~~~~~
-=== DO NOT EDIT THIS FILE! ===-
Path: ...\Clube Da Esquina Vol. 1 (Clássicos Estado De Minas)
1 -=- Clube Da Esquina Vol. 1 (Clássicos Estado De Minas).flac -=- CDDA (100%)
230850036
Download available for power users only.
08:19
323
Нет комментариев. Ваш будет первым!