Поиск

(Latin Jazz) Joyce & Tutty Moreno – Samba-Jazz & Outras Bossas - 2007, FLAC (image+.cue), lossless

Треклист:
JOYCE& TUTTY MORENO'SAMBA JAZZ& OUTRAS BOSSAS'Жанр: Latin Jazz
Год выпуска диска: 2007
Производитель диска: Far Out Recordings
Аудио кодек: FLAC
Тип рипа: image+.cue
Битрейт аудио: lossless
Продолжительность: 49:13
Трэклист:
01. Penalty
02. April Child
03. Embalo
04. Compositor
05. Shangri-La
06. Devagar Com A Louca
07. Feijao Com Arroz
08. Berimbau
09. Garoto
10. Sabe Quem?
11. Tema Pro Baden
12. Bodas De Vinil
13. Magica
 
Log
Exact Audio Copy V0.99 prebeta 5 from 4. May 2009
EAC extraction logfile from 25. April 2010, 16:23
Joyce / Samba Jazz And Outras Bossas
Used drive : Optiarc DVD RW AD-7173A Adapter: 1 ID: 1
Read mode : Secure
Utilize accurate stream : Yes
Defeat audio cache : Yes
Make use of C2 pointers : No
Read offset correction : 48
Overread into Lead-In and Lead-Out : No
Fill up missing offset samples with silence : Yes
Delete leading and trailing silent blocks : No
Null samples used in CRC calculations : Yes
Used interface : Native Win32 interface for Win NT & 2000
Used output format : Internal WAV Routines
Sample format : 44.100 Hz; 16 Bit; Stereo
TOC of the extracted CD
Track | Start | Length | Start sector | End sector
---------------------------------------------------------
1 | 0:00.00 | 3:31.18 | 0 | 15842
2 | 3:31.18 | 4:39.40 | 15843 | 36807
3 | 8:10.58 | 3:26.25 | 36808 | 52282
4 | 11:37.08 | 4:17.00 | 52283 | 71557
5 | 15:54.08 | 4:22.07 | 71558 | 91214
6 | 20:16.15 | 2:53.40 | 91215 | 104229
7 | 23:09.55 | 4:52.10 | 104230 | 126139
8 | 28:01.65 | 3:26.33 | 126140 | 141622
9 | 31:28.23 | 3:29.00 | 141623 | 157297
10 | 34:57.23 | 3:27.00 | 157298 | 172822
11 | 38:24.23 | 3:33.12 | 172823 | 188809
12 | 41:57.35 | 3:27.08 | 188810 | 204342
13 | 45:24.43 | 3:48.52 | 204343 | 221494
Range status and errors
Selected range
Filename F:\AVAXHOME\Joyce & Tutti Moreno - Samba Jazz And Outras Bossas (2007)\Joyce - Samba Jazz And Outras Bossas.wav
Peak level 100.0 %
Range quality 100.0 %
Copy CRC DF36C121
Copy OK
No errors occurred
AccurateRip summary
Track 1 not present in database
Track 2 not present in database
Track 3 not present in database
Track 4 not present in database
Track 5 not present in database
Track 6 not present in database
Track 7 not present in database
Track 8 not present in database
Track 9 not present in database
Track 10 not present in database
Track 11 not present in database
Track 12 not present in database
Track 13 not present in database
None of the tracks are present in the AccurateRip database
End of status report
 
Cue
REM GENRE Latin
REM DATE 2007
REM DISCID C20B890D
REM COMMENT "ExactAudioCopy v0.99pb5"
PERFORMER "Joyce"
TITLE "Samba Jazz And Outras Bossas"
FILE "Joyce - Samba Jazz And Outras Bossas.flac" WAVE
TRACK 01 AUDIO
TITLE "Penalty"
PERFORMER "Joyce"
INDEX 01 00:00:00
TRACK 02 AUDIO
TITLE "April Child "
PERFORMER "Joyce"
INDEX 00 03:29:73
INDEX 01 03:31:18
TRACK 03 AUDIO
TITLE "Embalo "
PERFORMER "Joyce"
INDEX 00 08:10:08
INDEX 01 08:10:58
TRACK 04 AUDIO
TITLE "Compositor"
PERFORMER "Joyce"
INDEX 00 11:35:30
INDEX 01 11:37:08
TRACK 05 AUDIO
TITLE "Shangri-La "
PERFORMER "Joyce"
INDEX 00 15:52:60
INDEX 01 15:54:08
TRACK 06 AUDIO
TITLE "Devagar Com A Louca"
PERFORMER "Joyce"
INDEX 00 20:14:40
INDEX 01 20:16:15
TRACK 07 AUDIO
TITLE "Feijao Com Arroz"
PERFORMER "Joyce"
INDEX 00 23:08:20
INDEX 01 23:09:55
TRACK 08 AUDIO
TITLE "Berimbau "
PERFORMER "Joyce"
INDEX 00 28:00:05
INDEX 01 28:01:65
TRACK 09 AUDIO
TITLE "Garoto "
PERFORMER "Joyce"
INDEX 00 31:26:30
INDEX 01 31:28:23
TRACK 10 AUDIO
TITLE "Sabe Quem? "
PERFORMER "Joyce"
INDEX 00 34:55:45
INDEX 01 34:57:23
TRACK 11 AUDIO
TITLE "Tema Pro Baden "
PERFORMER "Joyce"
INDEX 00 38:22:60
INDEX 01 38:24:23
TRACK 12 AUDIO
TITLE "Bodas De Vinil "
PERFORMER "Joyce"
INDEX 00 41:56:35
INDEX 01 41:57:35
TRACK 13 AUDIO
TITLE "Magica "
PERFORMER "Joyce"
INDEX 01 45:24:43
 
audiochecker.log
AUDIOCHECKER v2.0 beta (build 457) - by Dester - opdester@freemail.hu
~~~~~~~~~~~~~~~~~~~~~~~~~~~~~~~~~~
-=== DO NOT EDIT THIS FILE! ===-
Path: ...\Samba-Jazz & Outras Bossas
01 -=- 01 из Joyce - Samba Jazz And Outras Bossas.wav -=- CDDA (100%)
02 -=- 02 из Joyce - Samba Jazz And Outras Bossas.wav -=- CDDA (100%)
03 -=- 03 из Joyce - Samba Jazz And Outras Bossas.wav -=- CDDA (99%)
04 -=- 04 из Joyce - Samba Jazz And Outras Bossas.wav -=- CDDA (100%)
05 -=- 05 из Joyce - Samba Jazz And Outras Bossas.wav -=- CDDA (100%)
06 -=- 06 из Joyce - Samba Jazz And Outras Bossas.wav -=- CDDA (100%)
07 -=- 07 из Joyce - Samba Jazz And Outras Bossas.wav -=- CDDA (100%)
08 -=- 08 из Joyce - Samba Jazz And Outras Bossas.wav -=- CDDA (100%)
09 -=- 09 из Joyce - Samba Jazz And Outras Bossas.wav -=- CDDA (100%)
10 -=- 10 из Joyce - Samba Jazz And Outras Bossas.wav -=- CDDA (100%)
11 -=- 11 из Joyce - Samba Jazz And Outras Bossas.wav -=- CDDA (100%)
12 -=- 12 из Joyce - Samba Jazz And Outras Bossas.wav -=- CDDA (100%)
13 -=- 13 из Joyce - Samba Jazz And Outras Bossas.wav -=- CDDA (100%)
Summary 99,92% CDDA
133888020
Доп. информация: взял в нете, релиз от janwal46.
 
back
15:24
281
Нет комментариев. Ваш будет первым!