Поиск

(Latin Jazz, Bossa Nova) Antonio Carlos Jobim & Gal Costa — Rio Revisited (1987) - 2008, FLAC (image+.cue), lossless

Треклист:
Antonio Carlos Jobim & Gal Costa — Rio Revisited (1987)
Жанр: Latin Jazz, Bossa Nova
Год выпуска диска: 2008
Label: Verve (B0011182-02)
Аудио кодек: FLAC
Тип рипа: image+.cue
Битрейт аудио: lossless
Продолжительность: 42:30
Трeклист:
01. One Note Samba (3:01)
02. Desafinado (3:01)
03. Agua De Beber (2:52)
04. Dindi (5:21)
05. Wave (2:51)
06. Chega De Saudade (No More Blues) (3:49)
07. Two Kites (4:55)
08. Samba Do Soho (3:30)
09. Sabia (3:14)
10. Samba Do Aviao (Song Of The Jet) (3:23)
11. Aguas De Marco (Waters Of March) (3:27)
12. Corcovado (3:08)
Сканы: 300 dpi
   Автор рипа barin99
 
Отчет ЕАС
Exact Audio Copy V0.99 prebeta 4 from 23. January 2008
EAC extraction logfile from 19. February 2010, 20:50
Antonio Carlos Jobim / Rio Revisited
Used drive : HL-DT-STRW/DVD GCC-4242N Adapter: 1 ID: 0
Read mode : Secure
Utilize accurate stream : Yes
Defeat audio cache : Yes
Make use of C2 pointers : No
Read offset correction : 102
Overread into Lead-In and Lead-Out : No
Fill up missing offset samples with silence : Yes
Delete leading and trailing silent blocks : No
Null samples used in CRC calculations : Yes
Used interface : Native Win32 interface for Win NT & 2000
Used output format : Internal WAV Routines
Sample format : 44.100 Hz; 16 Bit; Stereo
TOC of the extracted CD
Track | Start | Length | Start sector | End sector
---------------------------------------------------------
1 | 0:00.00 | 3:01.34 | 0 | 13608
2 | 3:01.34 | 3:00.40 | 13609 | 27148
3 | 6:01.74 | 2:51.47 | 27149 | 40020
4 | 8:53.46 | 5:20.39 | 40021 | 64059
5 | 14:14.10 | 2:50.51 | 64060 | 76860
6 | 17:04.61 | 3:48.40 | 76861 | 94000
7 | 20:53.26 | 4:54.67 | 94001 | 116117
8 | 25:48.18 | 3:30.00 | 116118 | 131867
9 | 29:18.18 | 3:13.41 | 131868 | 146383
10 | 32:31.59 | 3:23.17 | 146384 | 161625
11 | 35:55.01 | 3:27.15 | 161626 | 177165
12 | 39:22.16 | 3:08.06 | 177166 | 191271
Range status and errors
Selected range
Filename C:\_\EAC_Out\Out\Antonio Carlos Jobim - Rio Revisited\Antonio Carlos Jobim - Rio Revisited.wav
Peak level 99.3 %
Range quality 100.0 %
Copy CRC 37763C94
Copy OK
No errors occurred
AccurateRip summary
Track 1 accurately ripped (confidence 2) [63DD2620]
Track 2 accurately ripped (confidence 2) [BE15A259]
Track 3 accurately ripped (confidence 2) [BA306077]
Track 4 accurately ripped (confidence 2) [8675B2E1]
Track 5 accurately ripped (confidence 2) [515B42A3]
Track 6 accurately ripped (confidence 2) [06F58A20]
Track 7 accurately ripped (confidence 2) [42E4F861]
Track 8 accurately ripped (confidence 2) [02B8E35B]
Track 9 accurately ripped (confidence 2) [E0D370EF]
Track 10 accurately ripped (confidence 2) [10618240]
Track 11 accurately ripped (confidence 2) [3D97CA7A]
Track 12 accurately ripped (confidence 2) [8CC77D53]
All tracks accurately ripped
End of status report
   :arrow: Мои раздачи на трекере
15:22
513
Нет комментариев. Ваш будет первым!