Поиск

(Latin Jazz) Gato Barbieri - The Third World - 1969, FLAC (tracks+.cue), lossless

(Latin Jazz) Gato Barbieri - The Third World - 1969, FLAC (tracks+.cue), lossless
Треклист:
Gato Barbieri - The Third World (1969) {Digital Remastering}
Жанр: Latin Jazz
Дата записи: Nov 24 - 25, 1969
Дата выпуска: 1969
Производитель диска, страна: 1995, BMG France, 74321257582
Тип: Studio
Аудио кодек: FLAC
Тип рипа: (tracks + .cue)
Битрейт аудио: lossless
Включает: Full artwork, jpg
Продолжительность: 39:30
Источник: torrent
Трэклист:
1. Introduction/Cancion del Llamero/Tango (Barbieri, Piazzola, Quiroga) - 11:04
2. Zelao (Ricordo) - 8:02
3. Antonio das Mortes (Barbieri) - 9:26
4. Bachianas Brasileiras/Haleo and the Wild Rose (Villa-Lobos) - 10:58
Состав:
Gato Barbieri - Flute, Sax (Tenor), Vocals
Charlie Haden - Bass
Beaver Harris - Drums
Richard Landrum - Percussion
Roswell Rudd - Trombone
Lonnie Liston Smith - Piano
Рейтинги и премии:
Allmusic - 3
Мои раздачи на треккере - jazz / fusion / prog
 
Review by Al Campbell
The Third World is the initial session that mixed Gato Barbieri's free jazz tenor playing with Latin and Brazilian influences. It's also the album that brought Barbieri positive attention from the college crowds of the late '60s. He would expand on this musical combination with his next few Flying Dutchman releases as well as his first recordings for the Impulse! label. The records made between 1969 through 1974 find Barbieri creating a danceable yet fiery combination of South American rhythms and free jazz forcefulness. Strangely, once Barbieri signed with A&M, he began making commercial records geared to fans of Herb Alpert, sounding nothing like his earlier albums.
 
Folder content
01 - Introduction - Cancion del Llamero - Tango.flac
02 - Zealo.flac
03 - Antonio das Mortes.flac
04 - Bachianas Brasileiras - Haleo and the Wild Rose.flac
Artwork
Gato Barbieri - The Third World.m3u
tau.txt
The Third World.CUE
The Third World.log
Artwork\back.jpg
Artwork\booklet 1.jpg
Artwork\booklet 2.jpg
Artwork\booklet 3.jpg
Artwork\cover.jpg
 
EAC log
EAC extraction logfile from 26. October 2007, 21:09 for CD
Gato Barbieri / The Third World
Used drive : TSSTcorpCD/DVDW SH-S183L Adapter: 3 ID: 1
Read mode : Secure with NO C2, accurate stream, disable cache
Read offset correction : 6
Overread into Lead-In and Lead-Out : No
Used output format : C:\Program Files\FLAC\flac.exe (User Defined Encoder)
128 kBit/s
Additional command line options : -V -8 -T "artist=%a" -T "title=%t" -T "album=%g" -T "date=%y" -T "tracknumber=%n" -T "genre=%m" %s
Other options :
Fill up missing offset samples with silence : Yes
Delete leading and trailing silent blocks : No
Installed external ASPI interface
Track 1
Filename D:\Torrents\up\Gato Barbieri - The Third World (1969) [FLAC]\01 - Introduction - Cancion del Llamero - Tango.wav
Pre-gap length 0:00:02.42
Peak level 98.3 %
Track quality 100.0 %
Test CRC 20A994E2
Copy CRC 20A994E2
Copy OK
Track 2
Filename D:\Torrents\up\Gato Barbieri - The Third World (1969) [FLAC]\02 - Zealo.wav
Pre-gap length 0:00:01.88
Peak level 84.3 %
Track quality 100.0 %
Test CRC DED81B7B
Copy CRC DED81B7B
Copy OK
Track 3
Filename D:\Torrents\up\Gato Barbieri - The Third World (1969) [FLAC]\03 - Antonio das Mortes.wav
Pre-gap length 0:00:01.86
Peak level 90.0 %
Track quality 100.0 %
Test CRC 69EDF128
Copy CRC 69EDF128
Copy OK
Track 4
Filename D:\Torrents\up\Gato Barbieri - The Third World (1969) [FLAC]\04 - Bachianas Brasileiras - Haleo and the Wild Rose.wav
Pre-gap length 0:00:01.74
Peak level 86.1 %
Track quality 99.9 %
Test CRC CCD02925
Copy CRC CCD02925
Copy OK
No errors occured
End of status report
 
auCDtect log
2698203199 117129644 01 - Introduction - Cancion del Llamero - Tango.wav
179671269 85083644 02 - Zealo.wav
605832487 99873020 03 - Antonio das Mortes.wav
1618660068 116158268 04 - Bachianas Brasileiras - Haleo and the Wild Rose.wav
auCDtect: CD records authenticity detector, version 0.8.2
Copyright (c) 2004 Oleg Berngardt. All rights reserved.
Copyright (c) 2004 Alexander Djourik. All rights reserved.
------------------------------------------------------------
Processing file: [01 - Introduction - Cancion del Llamero - Tango.wav]
------------------------------------------------------------
This track looks like CDDA with probability 100%
------------------------------------------------------------
Processing file: [02 - Zealo.wav]
------------------------------------------------------------
This track looks like CDDA with probability 100%
------------------------------------------------------------
Processing file: [03 - Antonio das Mortes.wav]
------------------------------------------------------------
This track looks like MPEG with probability 95%
------------------------------------------------------------
Processing file: [04 - Bachianas Brasileiras - Haleo and the Wild Rose.wav]
------------------------------------------------------------
This track looks like CDDA with probability 100%
------------------------------------------------------------
Final Conclusion:
------------------------------------------------------------
These tracks looks like CDDA with probability 100%
Я не сидирую все свои раздачи подолгу, только новые (до 3х первых сидов)
Предлагаю скачавшим максимально долго оставаться на раздаче - весь рейтинг будет ваш
Я вернусь, если меня попросят в топике или в ПМ
03:18
376
Нет комментариев. Ваш будет первым!