Поиск

(Jazz / Contemporary, Mainstream Jazz, Bop, Latin Jazz, Brazilian Jazz) Toots Thielemans - Apple Dimple - 1979, FLAC (tracks+.cue), lossless

(Jazz / Contemporary, Mainstream Jazz, Bop, Latin Jazz, Brazilian Jazz) Toots Thielemans - Apple Dimple - 1979, FLAC (tracks+.cue), lossless
Треклист:
Toots Thielemans - Apple Dimple
Жанр: Jazz / Contemporary, Mainstream Jazz, Bop, Latin Jazz, Brazilian Jazz
Год выпуска диска: 1979
Аудио кодек: FLAC
Тип рипа: tracks+.cue
Битрейт аудио: lossless
Продолжительность: 38:59
Трэклист:
01. Take The "A" Train (Strayhorn) 5:16
02. Sunday In New York (Nero) 4:15
03. Looking For Mr. Goodbar (Kane) 5:27
04. Honesty (Joel) 5:36
05. Midnight Cowboy (Barry) 4:46
06. Harlem Nocturne (Hagen) 6:10
07. Still Crazy After All These Years (Simon) 7:29
Personnel:
Toots Thielemans (harmonica, guitar),
Masahiko Matsuki (guitar),
Akira Okazawa (bass),
Yuichi Togashiki (drums),
Tadaomi Anai (percussion).
 
EAC
Exact Audio Copy V0.99 prebeta 4 from 23. January 2008
EAC uitlezen log bestand van 18. Juli 2008, 18:25
Toots Thielemans / Apple Dimple
gebruikt loopwerk : Optiarc DVD RW AD-7170A Adapter: 3 ID: 0
Lees mode : Veilig
Gebruik accurate stream : Ja
Audio buffer uitgeschakeld : Ja
Gebruik C2 Foutinformatie : Neen
Lees-offset correctie : 48
Overlees in Lead-In en Lead-Out : Neen
Vul ontbrekende offset samples met stiltes aan : Ja
Wis stilte blokken aan het begin en einde : Neen
Nul samples gebruikt in CRC berekeningen : Ja
Gebruik interface : Native Win32 interface voor Win NT/2000/XP
Pauzebehandeling : Niet gevonden, dus aan het einde van vorige track toevoegen
Gebruik uitgave formaat : Door Gebruiker Bepaalde Comprimeerder
Geselecteerde bitrate : 640 kBit/s
Kwaliteit : Hoog
ID3 tag toevoegen : Ja
Commandolijn comprimeerder : C:\flacattack\flacattack.exe
Bijkomende commandolijn instellingen : "C:\flacattack\flac.ini" %s "%a" "%t" "%g" "%y" "%n" "%m" %o
TOC van de uitgelezen CD
Track | Start | Lengte | Startsector | Eindsector
--------------------------------------------------------
1 | 0:00.00 | 5:16.67 | 0 | 23766
2 | 5:16.67 | 4:17.58 | 23767 | 43099
3 | 9:34.50 | 5:31.32 | 43100 | 67956
4 | 15:06.07 | 5:38.35 | 67957 | 93341
5 | 20:44.42 | 4:48.50 | 93342 | 114991
6 | 25:33.17 | 6:18.20 | 114992 | 143361
7 | 31:51.37 | 7:29.63 | 143362 | 177099
Track 1
Bestandsnaam E:\EAC\01 - Take The A Train.wav
Piek niveau 77.4 %
Track kwaliteit 100.0 %
Kopie CRC AE655B42
Verificatie is niet juist. (confedentie 2) [5344DF0A], AccurateRip antwoord [9846F6AE]
Kopie OK
Track 2
Bestandsnaam E:\EAC\02 - Sunday In New York.wav
Piek niveau 83.7 %
Track kwaliteit 100.0 %
Kopie CRC 3048F623
Verificatie is niet juist. (confedentie 2) [9B1324C2], AccurateRip antwoord [E280A36B]
Kopie OK
Track 3
Bestandsnaam E:\EAC\03 - Looking For Mr. Goodbar.wav
Piek niveau 50.0 %
Track kwaliteit 100.0 %
Kopie CRC 7C681362
Verificatie is niet juist. (confedentie 2) [2E16DDBB], AccurateRip antwoord [03734F2D]
Kopie OK
Track 4
Bestandsnaam E:\EAC\04 - Honesty.wav
Piek niveau 84.1 %
Track kwaliteit 100.0 %
Kopie CRC E0F671E7
Verificatie is niet juist. (confedentie 2) [084F5898], AccurateRip antwoord [AAE173FE]
Kopie OK
Track 5
Bestandsnaam E:\EAC\05 - Midnight Cowboy.wav
Piek niveau 70.6 %
Track kwaliteit 100.0 %
Kopie CRC 2D961D21
Verificatie is niet juist. (confedentie 2) [206C4845], AccurateRip antwoord [0938C675]
Kopie OK
Track 6
Bestandsnaam E:\EAC\06 - Harlem Nocturne.wav
Piek niveau 84.7 %
Track kwaliteit 100.0 %
Kopie CRC E8D3E239
Verificatie is niet juist. (confedentie 2) [14AF6FF5], AccurateRip antwoord [07437BD1]
Kopie OK
Track 7
Bestandsnaam E:\EAC\07 - Still Crazy After All These Years.wav
Piek niveau 80.9 %
Track kwaliteit 100.0 %
Kopie CRC 5DB0F18D
Track niet aanwezig in AccurateRip database
Kopie OK
6
1
Verificatie van geen enkele track is juist
U kunt een andere persing hebben dan deze in de database
Geen fouten opgetreden
Einde van het status rapport
04:18
350
Нет комментариев. Ваш будет первым!