Поиск

(Latin Jazz / Fusion Jazz) [CD] Azymuth - Rapid Transit (Milestone / 815 441-2 / W. Germany) - 1983, FLAC (image+.cue), lossless

(Latin Jazz / Fusion Jazz) [CD] Azymuth - Rapid Transit (Milestone / 815 441-2 / W. Germany) - 1983, FLAC (image+.cue), lossless
Треклист:
Azymuth / Rapid Transit
Жанр: Latin Jazz / Fusion Jazz
Носитель: CD
Страна-производитель диска (релиза): Germany
Год издания: 1984
Издатель (лейбл): Milestone (Metronome Musik GmbH)
Номер по каталогу: 815 441-2
Матрица диска: 815 441-2 01
Страна исполнителя (группы): Brazil
Аудиокодек: FLAC (*.flac)
Тип рипа: image+.cue
Режим рипа: test & copy
Битрейт аудио: lossless
Продолжительность: 00:37:18
Источник (релизер): sewerok
Наличие сканов в содержимом раздачи: нет
Треклист:
01. Make Mine Guarana (So Bebo Guarana, Mas) [0:08:44.00]
02. Afternoon (Tarde) [0:07:49.68]
03. Mising Doto (Saudades Do Doto) [0:02:24.32]
04. Somewhere In Brazil (Em Algum Lugar Do Brazil) [0:06:17.50]
05. I'm Just Looking Around [0:05:34.33]
06. Montreux [0:03:43.55]
07. Gate Of Time (Portal Do Tempo) [0:02:43.12]
 
Лог создания рипа
Exact Audio Copy V1.0 beta 4 from 7. December 2014
EAC extraction logfile from 6. April 2015, 15:16
Azymuth / Rapid Transit
Used drive : TSSTcorpCD/DVDW TS-L632D Adapter: 1 ID: 0
Read mode : Secure
Utilize accurate stream : Yes
Defeat audio cache : Yes
Make use of C2 pointers : No
Read offset correction : 6
Overread into Lead-In and Lead-Out : No
Fill up missing offset samples with silence : Yes
Delete leading and trailing silent blocks : No
Null samples used in CRC calculations : Yes
Used interface : Native Win32 interface for Win NT & 2000
Used output format : User Defined Encoder
Selected bitrate : 896 kBit/s
Quality : High
Add ID3 tag : No
Command line compressor : C:\Program Files (x86)\Exact Audio Copy\FLAC\FLAC.EXE
Additional command line options : -7 -V -T "Date=%year%" -T "Genre=%genre%" -T "COMMENT=ripped by sewerok®" %source%
TOC of the extracted CD
Track | Start | Length | Start sector | End sector
---------------------------------------------------------
1 | 0:00.32 | 8:44.00 | 32 | 39331
2 | 8:44.32 | 7:49.68 | 39332 | 74574
3 | 16:34.25 | 2:24.32 | 74575 | 85406
4 | 18:58.57 | 6:17.50 | 85407 | 113731
5 | 25:16.32 | 5:34.33 | 113732 | 138814
6 | 30:50.65 | 3:43.55 | 138815 | 155594
7 | 34:34.45 | 2:43.12 | 155595 | 167831
Range status and errors
Selected range
Filename D:\Azymuth - Rapid Transit [1983](Milestone 815 441-2 W. Germany)\Azymuth - Rapid Transit.wav
Peak level 89.7 %
Extraction speed 1.5 X
Range quality 99.9 %
Test CRC 91BBDE06
Copy CRC 91BBDE06
Copy OK
No errors occurred
AccurateRip summary
Track 1 accurately ripped (confidence 3) [77085FD3] (AR v2)
Track 2 accurately ripped (confidence 3) [64BAB264] (AR v2)
Track 3 accurately ripped (confidence 3) [41D4CE2C] (AR v2)
Track 4 accurately ripped (confidence 3) [FFEDE88C] (AR v2)
Track 5 accurately ripped (confidence 3) [2B323FF4] (AR v2)
Track 6 accurately ripped (confidence 3) [6AD2287C] (AR v2)
Track 7 accurately ripped (confidence 3) [61128F85] (AR v2)
All tracks accurately ripped
End of status report
---- CUETools DB Plugin V2.1.5
[CTDB TOCID: uGnOHgP0RC8VMJVy1uXcq6S83XM-] disk not present in database
Submit result: uGnOHgP0RC8VMJVy1uXcq6S83XM- has been uploaded
==== Log checksum B03E7DFF735DC34FDAC95EDE212B0018F7639254F109AEE53C37309B7DB35761 ====
 
CUETools log
[CUETools log; Date: 06.04.2015 15:17:42; Version: 2.1.5]
Pregap length 00:00:32.
[CTDB TOCID: uGnOHgP0RC8VMJVy1uXcq6S83XM-] found.
Track | CTDB Status
1 | (1/1) Accurately ripped
2 | (1/1) Accurately ripped
3 | (1/1) Accurately ripped
4 | (1/1) Accurately ripped
5 | (1/1) Accurately ripped
6 | (1/1) Accurately ripped
7 | (1/1) Accurately ripped
[AccurateRip ID: 000bd498-004451ec-5b08bd07] found.
Track [ CRC | V2 ] Status
01 [9228b0f1|77085fd3] (3+3/6) Accurately ripped
02 [c66bc264|64bab264] (3+3/6) Accurately ripped
03 [0a677e4d|41d4ce2c] (3+3/6) Accurately ripped
04 [4b84b8fd|ffede88c] (3+3/6) Accurately ripped
05 [1cca5638|2b323ff4] (3+3/6) Accurately ripped
06 [db701909|6ad2287c] (3+3/6) Accurately ripped
07 [49b14d5f|61128f85] (3+3/6) Accurately ripped
Track Peak [ CRC32 ] [W/O NULL] [ LOG ]
-- 89,7 [91BBDE06] [65ED0CF6] CRC32
01 89,7 [329A14A1] [AF17A210]
02 84,9 [4184168D] [E86B5C30]
03 76,2 [580C7C4F] [89C8E0F2]
04 68,3 [E3633D9C] [CF832A71]
05 85,9 [4223CEB4] [80642891]
06 81,7 [2B03E8D5] [0CEE9E7F]
07 56,9 [12B01A97] [11FFD526]
 
CD
18:16
564
Нет комментариев. Ваш будет первым!