Поиск

(Latin jazz) [CD] Tito Puente - Tambo (1960) - 1992, FLAC (image+.cue), lossless

(Latin jazz) [CD] Tito Puente - Tambo (1960) - 1992, FLAC (image+.cue), lossless
Треклист:
Tito Puente - Tambó (1960) Жанр: Latin jazz
Носитель: CD
Год издания: 1992
Издатель (лейбл): RCA/BMG
Номер по каталогу: RCA 3470-2-RL
Аудиокодек: FLAC (*.flac)
Тип рипа: image+.cue
Битрейт аудио: lossless
Продолжительность: 31:10
Rip by dreadbull
Наличие сканов в содержимом раздачи: да
Треклист:
01. Dance Of The Headhunters (3:12)
02. Call Of The Jungle Birds (2:27)
03. Rumba-Timbales (2:14)
04. The Ceremony Of Tambo (2:36)
05. Velorio (2:12)
06. Cuero Pelao (2:11)
07. Jungle Holiday (2:24)
08. Guaguanco (2:32)
09. Ritual Drum Dance (3:27)
10. Witch Doctor's Nightmare (2:38)
11. Son Montuno (2:55)
12. Voodoo Dance At Midnight (2:22)
 
 
Лог создания рипа
Exact Audio Copy V1.0 beta 3 from 29. August 2011
EAC extraction logfile from 10. May 2014, 14:56
Tito Puente / Tambo
Used drive : ASUS DRW-22B2L Adapter: 0 ID: 0
Read mode : Secure
Utilize accurate stream : Yes
Defeat audio cache : Yes
Make use of C2 pointers : No
Read offset correction : 6
Overread into Lead-In and Lead-Out : No
Fill up missing offset samples with silence : Yes
Delete leading and trailing silent blocks : No
Null samples used in CRC calculations : Yes
Used interface : Native Win32 interface for Win NT & 2000
Used output format : User Defined Encoder
Selected bitrate : 128 kBit/s
Quality : High
Add ID3 tag : Yes
Command line compressor : C:\Program Files (x86)\FLAC\flac.exe
Additional command line options : -8 -V -T "ARTIST=%artist%" -T "TITLE=%title%" -T "ALBUM=%albumtitle%" -T "DATE=%year%" -T "TRACKNUMBER=%tracknr%" -T "GENRE=%genre%" -T "PERFORMER=%albuminterpret%" -T "COMPOSER=%composer%" %haslyrics%--tag-from-file=LYRICS="%lyricsfile%"%haslyrics% -T "ALBUMARTIST=%albumartist%" -T "DISCNUMBER=%cdnumber%" -T "TOTALDISCS=%totalcds%" -T "TOTALTRACKS=%numtracks%" -T "COMMENT=%comment%" %source% -o %dest%
TOC of the extracted CD
Track | Start | Length | Start sector | End sector
---------------------------------------------------------
1 | 0:00.32 | 3:11.55 | 32 | 14411
2 | 3:12.12 | 2:26.58 | 14412 | 25419
3 | 5:38.70 | 2:14.32 | 25420 | 35501
4 | 7:53.27 | 2:35.68 | 35502 | 47194
5 | 10:29.20 | 2:12.22 | 47195 | 57116
6 | 12:41.42 | 2:11.20 | 57117 | 66961
7 | 14:52.62 | 2:24.23 | 66962 | 77784
8 | 17:17.10 | 2:32.15 | 77785 | 89199
9 | 19:49.25 | 3:27.15 | 89200 | 104739
10 | 23:16.40 | 2:37.57 | 104740 | 116571
11 | 25:54.22 | 2:54.65 | 116572 | 129686
12 | 28:49.12 | 2:21.50 | 129687 | 140311
Range status and errors
Selected range
Filename H:\Donkey Files\Tito Puente - Tambo (1960, RCA; 1992) [eac-flac-scans] byDrBull\Tito Puente - Tambo.wav
Peak level 97.2 %
Extraction speed 4.6 X
Range quality 99.9 %
Test CRC 80F7B771
Copy CRC 80F7B771
Copy OK
No errors occurred
AccurateRip summary
Track 1 cannot be verified as accurate (confidence 2) [2A4071CD], AccurateRip returned [2A18E071] (AR v2)
Track 2 cannot be verified as accurate (confidence 2) [58295038], AccurateRip returned [EECC9327] (AR v2)
Track 3 cannot be verified as accurate (confidence 2) [FF9E44A7], AccurateRip returned [0957D09C] (AR v2)
Track 4 cannot be verified as accurate (confidence 2) [00681539], AccurateRip returned [150AAEB1] (AR v2)
Track 5 cannot be verified as accurate (confidence 2) [E23E67E9], AccurateRip returned [08574DD3] (AR v2)
Track 6 cannot be verified as accurate (confidence 2) [14FEFCA0], AccurateRip returned [0B6C35E7] (AR v2)
Track 7 cannot be verified as accurate (confidence 2) [C3857EBB], AccurateRip returned [98F8DE93] (AR v2)
Track 8 cannot be verified as accurate (confidence 2) [43268DC0], AccurateRip returned [0FDEBF45] (AR v2)
Track 9 cannot be verified as accurate (confidence 2) [0FB55187], AccurateRip returned [63FC6960] (AR v2)
Track 10 cannot be verified as accurate (confidence 2) [37A5C0B6], AccurateRip returned [78116D80] (AR v2)
Track 11 cannot be verified as accurate (confidence 2) [455F2245], AccurateRip returned [09CF7DEF] (AR v2)
Track 12 cannot be verified as accurate (confidence 2) [4E8F6DE3], AccurateRip returned [4D8911CF] (AR v2)
No tracks could be verified as accurate
You may have a different pressing from the one(s) in the database
End of status report
---- CUETools DB Plugin V2.1.4
[CTDB TOCID: D5AQi8TuzrAk4oxAv8MzSY9x8cs-] disk not present in database
Submit result: D5AQi8TuzrAk4oxAv8MzSY9x8cs- has been uploaded
 
Содержание индексной карты (.CUE)
REM GENRE Latin
REM DATE 1960
REM DISCID A1074E0C
REM COMMENT "ExactAudioCopy v1.0b3"
CATALOG 0000000000000
PERFORMER "Tito Puente"
TITLE "Tambo"
FILE "Tito Puente - Tambo.flac" WAVE
TRACK 01 AUDIO
TITLE "Dance Of The Headhunters"
PERFORMER "Tito Puente"
INDEX 00 00:00:00
INDEX 01 00:00:32
TRACK 02 AUDIO
TITLE "Call Of The Jungle Birds"
PERFORMER "Tito Puente"
INDEX 00 03:11:00
INDEX 01 03:12:12
TRACK 03 AUDIO
TITLE "Rumba-Timbales"
PERFORMER "Tito Puente"
INDEX 00 05:37:57
INDEX 01 05:38:70
TRACK 04 AUDIO
TITLE "The Ceremony Of Tambo"
PERFORMER "Tito Puente"
INDEX 00 07:52:10
INDEX 01 07:53:27
TRACK 05 AUDIO
TITLE "Velorio"
PERFORMER "Tito Puente"
INDEX 00 10:28:12
INDEX 01 10:29:20
TRACK 06 AUDIO
TITLE "Cuero Pelao"
PERFORMER "Tito Puente"
INDEX 00 12:40:37
INDEX 01 12:41:42
TRACK 07 AUDIO
TITLE "Jungle Holiday"
PERFORMER "Tito Puente"
INDEX 00 14:51:47
INDEX 01 14:52:62
TRACK 08 AUDIO
TITLE "Guaguanco"
PERFORMER "Tito Puente"
INDEX 00 17:16:20
INDEX 01 17:17:10
TRACK 09 AUDIO
TITLE "Ritual Drum Dance"
PERFORMER "Tito Puente"
INDEX 00 19:48:22
INDEX 01 19:49:25
TRACK 10 AUDIO
TITLE "Witch Doctor's Nightmare"
PERFORMER "Tito Puente"
INDEX 00 23:15:45
INDEX 01 23:16:40
TRACK 11 AUDIO
TITLE "Son Montuno"
PERFORMER "Tito Puente"
INDEX 00 25:53:12
INDEX 01 25:54:22
TRACK 12 AUDIO
TITLE "Voodoo Dance At Midnight"
PERFORMER "Tito Puente"
INDEX 00 28:47:72
INDEX 01 28:49:12
18:15
358
Нет комментариев. Ваш будет первым!