Поиск

(Latin Jazz, Fusion, Flamenco) Carles Benavent & Josemi Carmona - Sumando - 2006, FLAC (tracks+.cue), lossless

(Latin Jazz, Fusion, Flamenco) Carles Benavent & Josemi Carmona - Sumando - 2006, FLAC (tracks+.cue), lossless
Треклист:
•Carles Benavent & Josemi Carmona - Sumando•
Жанр: Latin Jazz, Fusion, Flamenco
Год издания диска: 2006
Издатель (лейбл): Nuevos Medios
Аудиокодек: FLAC (*.flac)
Тип рипа: tracks+.cue
Битрейт аудио: lossless
Продолжительность: 00:41:59
Источник (релизер): tiburon
Наличие сканов в содержимом раздачи: да
Треклист:
01. Sencillito 3:01
02. La Garza 6:22
03. Dama 4:46
04. Skely 3:37
05. Soleo 5:05
06. Amic Joan 4:32
07. El Galleta 4:31
08. Okinawa 3:45
09. Lupeando 3:29
10. Solea 2:16

Personnel:Carles Benavent - bass, keyboards, mandolin, chorus, programming, ebow
Josemi Carmona - acoustic guitar, keyboards, programming, clapping, mandolin
Bandolero - percusion, clapping
Chick Corea - electric piano
Jorge Pardo - flute
Chaboli - percusion
Tino Di Geraldo - drums
Diego El Cigala - vocal
Piraña - percusion
Juan Carmona Jr. - percusion
Paquete - vocal
Joselin Vargas - clapping
 
Лог создания рипа
Exact Audio Copy V1.0 beta 1 from 15. November 2010
EAC extraction logfile from 1. January 2011, 14:16
Carles Benavent & Josemi Carmona / Sumando
Used drive : HL-DT-STDVD-ROM GDR8164B Adapter: 0 ID: 1
Read mode : Secure
Utilize accurate stream : Yes
Defeat audio cache : Yes
Make use of C2 pointers : No
Read offset correction : 102
Overread into Lead-In and Lead-Out : No
Fill up missing offset samples with silence : Yes
Delete leading and trailing silent blocks : No
Null samples used in CRC calculations : Yes
Used interface : Native Win32 interface for Win NT & 2000
Gap handling : Appended to previous track
Used output format : User Defined Encoder
Selected bitrate : 768 kBit/s
Quality : High
Add ID3 tag : No
Command line compressor : C:\Archivos de programa\Exact Audio Copy\FLAC\FLAC.EXE
Additional command line options : -8 -V -T "ARTIST=%a" -T "TITLE=%t" -T "ALBUM=%g" -T "DATE=%y" -T "TRACKNUMBER=%n" -T "TOTALTRACKS=%x" -T "GENRE=%m" -T "ALBUMARTIST=%v" -T "ALBUM ARTIST=%v" -T "COMMENT=EAC Secure Mode, Test & Copy, AccurateRip, FLAC -8" %s
TOC of the extracted CD
Track | Start | Length | Start sector | End sector
---------------------------------------------------------
1 | 0:00.00 | 3:01.04 | 0 | 13578
2 | 3:01.04 | 6:21.73 | 13579 | 42226
3 | 9:23.02 | 4:46.11 | 42227 | 63687
4 | 14:09.13 | 3:37.52 | 63688 | 80014
5 | 17:46.65 | 5:04.67 | 80015 | 102881
6 | 22:51.57 | 4:31.57 | 102882 | 123263
7 | 27:23.39 | 4:31.25 | 123264 | 143613
8 | 31:54.64 | 3:44.55 | 143614 | 160468
9 | 35:39.44 | 4:03.49 | 160469 | 178742
10 | 39:43.18 | 2:16.43 | 178743 | 188985
Track 1
Filename E:\FTP\Carles Benavent & Josemi Carmona - Sumando (2005) [FLAC]\01 - Sencillito.wav
Pre-gap length 0:00:02.00
Peak level 98.9 %
Extraction speed 5.3 X
Track quality 100.0 %
Test CRC 2DD880BB
Copy CRC 2DD880BB
Cannot be verified as accurate (confidence 1) [60E529DD], AccurateRip returned [10BB11F1]
Copy OK
Track 2
Filename E:\FTP\Carles Benavent & Josemi Carmona - Sumando (2005) [FLAC]\02 - La Garza.wav
Peak level 98.9 %
Extraction speed 6.6 X
Track quality 100.0 %
Test CRC 579184F7
Copy CRC 579184F7
Cannot be verified as accurate (confidence 1) [CC83F537], AccurateRip returned [7C126397]
Copy OK
Track 3
Filename E:\FTP\Carles Benavent & Josemi Carmona - Sumando (2005) [FLAC]\03 - Dama.wav
Pre-gap length 0:00:01.00
Peak level 98.8 %
Extraction speed 7.1 X
Track quality 100.0 %
Test CRC 8232B878
Copy CRC 8232B878
Cannot be verified as accurate (confidence 1) [830C3845], AccurateRip returned [224586BF]
Copy OK
Track 4
Filename E:\FTP\Carles Benavent & Josemi Carmona - Sumando (2005) [FLAC]\04 - Skely.wav
Pre-gap length 0:00:01.00
Peak level 98.8 %
Extraction speed 7.3 X
Track quality 100.0 %
Test CRC 0C2369A4
Copy CRC 0C2369A4
Cannot be verified as accurate (confidence 1) [24B1DE90], AccurateRip returned [CEF3CC21]
Copy OK
Track 5
Filename E:\FTP\Carles Benavent & Josemi Carmona - Sumando (2005) [FLAC]\05 - Soleo.wav
Peak level 98.8 %
Extraction speed 7.4 X
Track quality 99.9 %
Test CRC 443A585D
Copy CRC 443A585D
Cannot be verified as accurate (confidence 1) [19D2BFB7], AccurateRip returned [0A162444]
Copy OK
Track 6
Filename E:\FTP\Carles Benavent & Josemi Carmona - Sumando (2005) [FLAC]\06 - Amic Joan.wav
Pre-gap length 0:00:01.00
Peak level 98.9 %
Extraction speed 8.4 X
Track quality 100.0 %
Test CRC EB601F05
Copy CRC EB601F05
Cannot be verified as accurate (confidence 1) [23BD0CF9], AccurateRip returned [F3ED703E]
Copy OK
Track 7
Filename E:\FTP\Carles Benavent & Josemi Carmona - Sumando (2005) [FLAC]\07 - El Galleta.wav
Pre-gap length 0:00:02.00
Peak level 98.9 %
Extraction speed 9.0 X
Track quality 100.0 %
Test CRC C00DC892
Copy CRC C00DC892
Cannot be verified as accurate (confidence 1) [358F4DA0], AccurateRip returned [5739C09B]
Copy OK
Track 8
Filename E:\FTP\Carles Benavent & Josemi Carmona - Sumando (2005) [FLAC]\08 - Okinawa.wav
Peak level 98.8 %
Extraction speed 9.2 X
Track quality 100.0 %
Test CRC 573DC947
Copy CRC 573DC947
Cannot be verified as accurate (confidence 1) [228AE86A], AccurateRip returned [D7D8EA96]
Copy OK
Track 9
Filename E:\FTP\Carles Benavent & Josemi Carmona - Sumando (2005) [FLAC]\09 - Lupeado.wav
Pre-gap length 0:00:01.05
Peak level 98.9 %
Extraction speed 9.7 X
Track quality 100.0 %
Test CRC 707F71B3
Copy CRC 707F71B3
Cannot be verified as accurate (confidence 1) [DF439D92], AccurateRip returned [4ADBBC73]
Copy OK
Track 10
Filename E:\FTP\Carles Benavent & Josemi Carmona - Sumando (2005) [FLAC]\10 - Solea.wav
Pre-gap length 0:00:35.00
Peak level 98.9 %
Extraction speed 8.9 X
Track quality 100.0 %
Test CRC E977DECE
Copy CRC E977DECE
Cannot be verified as accurate (confidence 1) [523B9093], AccurateRip returned [66D8ED93]
Copy OK
No tracks could be verified as accurate
You may have a different pressing from the one(s) in the database
No errors occurred
End of status report
==== Log checksum D362CA0AE3D458F3C6FAC98937C04388EAA3AD80750B1653EACD31F7771AE3B9 ====
 
Содержание индексной карты (.CUE)
REM GENRE Flamenco
REM DATE 2005
REM DISCID 8409D70A
REM COMMENT "ExactAudioCopy v1.0b1"
PERFORMER "Carles Benavent & Josemi Carmona"
TITLE "Sumando"
FILE "01 - Sencillito.wav" WAVE
TRACK 01 AUDIO
TITLE "Sencillito"
PERFORMER "Carles Benavent & Josemi Carmona"
INDEX 01 00:00:00
FILE "02 - La Garza.wav" WAVE
TRACK 02 AUDIO
TITLE "La Garza"
PERFORMER "Carles Benavent & Josemi Carmona"
INDEX 01 00:00:00
TRACK 03 AUDIO
TITLE "Dama"
PERFORMER "Carles Benavent & Josemi Carmona"
INDEX 00 06:20:73
FILE "03 - Dama.wav" WAVE
INDEX 01 00:00:00
TRACK 04 AUDIO
TITLE "Skely"
PERFORMER "Carles Benavent & Josemi Carmona"
INDEX 00 04:45:11
FILE "04 - Skely.wav" WAVE
INDEX 01 00:00:00
FILE "05 - Soleo.wav" WAVE
TRACK 05 AUDIO
TITLE "Soleo"
PERFORMER "Carles Benavent & Josemi Carmona"
INDEX 01 00:00:00
TRACK 06 AUDIO
TITLE "Amic Joan"
PERFORMER "Carles Benavent & Josemi Carmona"
INDEX 00 05:03:67
FILE "06 - Amic Joan.wav" WAVE
INDEX 01 00:00:00
TRACK 07 AUDIO
TITLE "El Galleta"
PERFORMER "Carles Benavent & Josemi Carmona"
INDEX 00 04:29:57
FILE "07 - El Galleta.wav" WAVE
INDEX 01 00:00:00
FILE "08 - Okinawa.wav" WAVE
TRACK 08 AUDIO
TITLE "Okinawa"
PERFORMER "Carles Benavent & Josemi Carmona"
INDEX 01 00:00:00
TRACK 09 AUDIO
TITLE "Lupeado"
PERFORMER "Carles Benavent & Josemi Carmona"
INDEX 00 03:43:50
FILE "09 - Lupeado.wav" WAVE
INDEX 01 00:00:00
TRACK 10 AUDIO
TITLE "Solea"
PERFORMER "Carles Benavent & Josemi Carmona"
INDEX 00 03:28:49
FILE "10 - Solea.wav" WAVE
INDEX 01 00:00:00
02:49
258
Нет комментариев. Ваш будет первым!