Поиск

(Jazz, Fusion, World Fusion, Contemporary Jazz) Trilok Gurtu - The Trilok Gurtu Collection - 1997, FLAC (tracks+.cue), lossless

(Jazz, Fusion, World Fusion, Contemporary Jazz) Trilok Gurtu - The Trilok Gurtu Collection - 1997, FLAC (tracks+.cue), lossless
Треклист:
Trilok Gurtu / The Trilok Gurtu Collection
Жанр: Jazz; Fusion, World Fusion, Contemporary Jazz
Страна-производитель диска: Germany
Год издания диска: 1997
Издатель (лейбл): CMP Records (division of Silva Screen Rec. Group)
Номер по каталогу: CMP CD 2501
Страна: India / Germany
Аудиокодек: FLAC (*.flac)
Тип рипа: tracks+.cue
Битрейт аудио: lossless
Продолжительность: 72:51
Источник (релизер): Надёжный
Наличие сканов в содержимом раздачи: да
This album could be an ideal one to start with. Compiled from 6 of his albums prior to Kathak is a treat listening to. Various different sounds and some mindblowing compositions.
Features artists like Joe Zawinul, Jan Garbarek, Pat Metheny, L. Shankar, Bill Evans, and the thumri queen Shobha Gurtu (Trilok's mother) amongst others.
Go ahead, grab this one and indulge yourself in the world of completely different kind of music, the Gurtu kind of music...
~ Amazon.com

Треклист:
01. Once I Wished a Tree Upside Down (Garbarek) (8:03)
02. Cherry Town (Gurtu) (5:14)
03. Watapa (Gurtu) (7:49)
04. Bad Boys (Emler) (8:39)
05. Believe (Gurtu) (6:25)
06. Ballad for 2 Musicians (Zawinul) (6:08)
07. Manini (Goyone, Gurtu) (7:06)
08. Baba (Gurtu) (8:31)
09. Shobharock (Gurtu) (7:37)
10. Om (Traditional) (7:13)
 
Лог создания рипа
Exact Audio Copy V0.99 prebeta 5 from 4. May 2009
EAC extraction logfile from 4. February 2012, 15:46
Trilok Gurtu / The Trilok Gurtu Collection
Used drive : Optiarc DVD RW AD-7700H Adapter: 0 ID: 1
Read mode : Secure
Utilize accurate stream : Yes
Defeat audio cache : Yes
Make use of C2 pointers : No
Read offset correction : 48
Overread into Lead-In and Lead-Out : No
Fill up missing offset samples with silence : Yes
Delete leading and trailing silent blocks : No
Null samples used in CRC calculations : Yes
Used interface : Native Win32 interface for Win NT & 2000
Gap handling : Appended to previous track
Used output format : User Defined Encoder
Selected bitrate : 32 kBit/s
Quality : High
Add ID3 tag : No
Command line compressor : C:\Program Files (x86)\Exact Audio Copy\FLAC\FLAC.EXE
Additional command line options : -8 -V -T "ARTIST=%a" -T "TITLE=%t" -T "ALBUM=%g" -T "DATE=%y" -T "TRACKNUMBER=%n" -T "GENRE=%m" -T "COMMENT=EAC FLAC -8" %s
TOC of the extracted CD
Track | Start | Length | Start sector | End sector
---------------------------------------------------------
1 | 0:00.00 | 8:03.37 | 0 | 36261
2 | 8:03.37 | 5:14.48 | 36262 | 59859
3 | 13:18.10 | 7:48.60 | 59860 | 95019
4 | 21:06.70 | 8:39.02 | 95020 | 133946
5 | 29:45.72 | 6:25.13 | 133947 | 162834
6 | 36:11.10 | 6:09.07 | 162835 | 190516
7 | 42:20.17 | 7:08.20 | 190517 | 222636
8 | 49:28.37 | 8:32.20 | 222637 | 261056
9 | 58:00.57 | 7:37.48 | 261057 | 295379
10 | 65:38.30 | 7:13.00 | 295380 | 327854
Track 1
Filename C:\Users\sony\Music\Rutracker_Seeds\01 - Once I Wished A Tree Upside Down.wav
Pre-gap length 0:00:02.00
Peak level 100.0 %
Track quality 99.9 %
Test CRC B5181CC7
Copy CRC B5181CC7
Cannot be verified as accurate (confidence 10) [C3A4116F], AccurateRip returned [686BD49B]
Copy OK
Track 2
Filename C:\Users\sony\Music\Rutracker_Seeds\02 - Cherry Town.wav
Pre-gap length 0:00:00.60
Peak level 100.0 %
Track quality 100.0 %
Test CRC 16791BD7
Copy CRC 16791BD7
Cannot be verified as accurate (confidence 10) [E2BBD8FC], AccurateRip returned [3168DF81]
Copy OK
Track 3
Filename C:\Users\sony\Music\Rutracker_Seeds\03 - Watapa.wav
Peak level 99.3 %
Track quality 100.0 %
Test CRC 8EF1E649
Copy CRC 8EF1E649
Cannot be verified as accurate (confidence 10) [62D1A1D6], AccurateRip returned [CB1E51B9]
Copy OK
Track 4
Filename C:\Users\sony\Music\Rutracker_Seeds\04 - Bad Boys.wav
Peak level 99.4 %
Track quality 99.9 %
Test CRC D4647954
Copy CRC D4647954
Cannot be verified as accurate (confidence 10) [0DE60A7D], AccurateRip returned [5B26B33D]
Copy OK
Track 5
Filename C:\Users\sony\Music\Rutracker_Seeds\05 - Believe.wav
Pre-gap length 0:00:00.25
Peak level 99.7 %
Track quality 99.9 %
Test CRC 4BA640C9
Copy CRC 4BA640C9
Cannot be verified as accurate (confidence 10) [2FCF4DA4], AccurateRip returned [097A40EA]
Copy OK
Track 6
Filename C:\Users\sony\Music\Rutracker_Seeds\06 - Ballad For 2 Musicians.wav
Peak level 100.0 %
Track quality 100.0 %
Test CRC 517F62BC
Copy CRC 517F62BC
Cannot be verified as accurate (confidence 10) [F54EE4D7], AccurateRip returned [982E9241]
Copy OK
Track 7
Filename C:\Users\sony\Music\Rutracker_Seeds\07 - Manini.wav
Pre-gap length 0:00:00.67
Peak level 98.6 %
Track quality 100.0 %
Test CRC 7EA48A43
Copy CRC 7EA48A43
Cannot be verified as accurate (confidence 9) [F7C18A59], AccurateRip returned [4A8B1491]
Copy OK
Track 8
Filename C:\Users\sony\Music\Rutracker_Seeds\08 - Baba.wav
Pre-gap length 0:00:01.45
Peak level 100.0 %
Track quality 100.0 %
Test CRC 519A9F01
Copy CRC 519A9F01
Cannot be verified as accurate (confidence 10) [603BD04D], AccurateRip returned [879BB2E5]
Copy OK
Track 9
Filename C:\Users\sony\Music\Rutracker_Seeds\09 - Shobharock.wav
Pre-gap length 0:00:01.35
Peak level 100.0 %
Track quality 100.0 %
Test CRC 2959841C
Copy CRC 2959841C
Cannot be verified as accurate (confidence 10) [B89CF510], AccurateRip returned [FD8AFA20]
Copy OK
Track 10
Filename C:\Users\sony\Music\Rutracker_Seeds\10 - Om.wav
Pre-gap length 0:00:00.65
Peak level 100.0 %
Track quality 99.9 %
Test CRC B08155AD
Copy CRC B08155AD
Cannot be verified as accurate (confidence 10) [D5659F4F], AccurateRip returned [39AA5C0F]
Copy OK
No tracks could be verified as accurate
You may have a different pressing from the one(s) in the database
No errors occurred
End of status report
 
Содержание индексной карты (.CUE)
REM GENRE Fusion
REM DATE 1997
REM DISCID 9011130A
REM COMMENT "ExactAudioCopy v0.99pb5"
PERFORMER "Trilok Gurtu"
TITLE "The Trilok Gurtu Collection"
FILE "01 - Once I Wished A Tree Upside Down.wav" WAVE
TRACK 01 AUDIO
TITLE "Once I Wished A Tree Upside Down"
PERFORMER "Trilok Gurtu"
INDEX 01 00:00:00
TRACK 02 AUDIO
TITLE "Cherry Town"
PERFORMER "Trilok Gurtu"
INDEX 00 08:02:52
FILE "02 - Cherry Town.wav" WAVE
INDEX 01 00:00:00
FILE "03 - Watapa.wav" WAVE
TRACK 03 AUDIO
TITLE "Watapa"
PERFORMER "Trilok Gurtu"
INDEX 01 00:00:00
FILE "04 - Bad Boys.wav" WAVE
TRACK 04 AUDIO
TITLE "Bad Boys"
PERFORMER "Trilok Gurtu"
INDEX 01 00:00:00
TRACK 05 AUDIO
TITLE "Believe"
PERFORMER "Trilok Gurtu"
INDEX 00 08:38:52
FILE "05 - Believe.wav" WAVE
INDEX 01 00:00:00
FILE "06 - Ballad For 2 Musicians.wav" WAVE
TRACK 06 AUDIO
TITLE "Ballad For 2 Musicians"
PERFORMER "Trilok Gurtu"
INDEX 01 00:00:00
TRACK 07 AUDIO
TITLE "Manini"
PERFORMER "Trilok Gurtu"
INDEX 00 06:08:15
FILE "07 - Manini.wav" WAVE
INDEX 01 00:00:00
TRACK 08 AUDIO
TITLE "Baba"
PERFORMER "Trilok Gurtu"
INDEX 00 07:06:50
FILE "08 - Baba.wav" WAVE
INDEX 01 00:00:00
TRACK 09 AUDIO
TITLE "Shobharock"
PERFORMER "Trilok Gurtu"
INDEX 00 08:30:60
FILE "09 - Shobharock.wav" WAVE
INDEX 01 00:00:00
TRACK 10 AUDIO
TITLE "Om"
PERFORMER "Trilok Gurtu"
INDEX 00 07:36:58
FILE "10 - Om.wav" WAVE
INDEX 01 00:00:00
 
Об исполнителе (группе)
Biography
by Craig Harris (AMG)
The musical traditions of the eastern and western worlds are bridged through the improvisations of Bombay, India-born percussionist/vocalist Trilok Gurtu. Gurtu's mastery of post-bop jazz has not gone unnoticed. Downbeat magazine named him "best percussionist" in three critic and popularity polls and proclaimed, "musically, the world is his stage". Jazz magazine, Straight No Chaser took a similar view, writing, "this music has a transcendental quality and removes any obstacles that lie between western and eastern improvised music."
Gurtu's eclectic approach has enabled him to collaborate with some of the world's greatest musicians. A member of trumpeter Don Cherry's band from 1976 to 1978, Gurtu has worked with such influential musicians as jazz guitarists Philip Catherine, John McLaughlin, Ralph Towner, Pat Metheny and Larry Coryell, rock guitarist David Gilmore, saxophonists Jan Garbarek and Bill Evans, percussionist Nana Vasconcelos, jazz keyboardist Josef Zawinul and classical pianists Katia and Marielle Labeque. Gurtu was a member of acoustic jazz fusion group, Oregon, from 1984 to 1988.
A native of Bombay, India, Gurtu hails from a musical family. His grandfather was a well known sitar player and his mother, Shobha Gurtu, was an influential singer of Indian classical music. Studying to play the tablas from the age of six, Gurtu attracted international attention in the mid-1970s when he performed with Charlie Mariano and John Tchicai. In 1977, he accompanied vocalist Asha Bhosle during her New York concerts. After touring and recording with Don Cherry for two years, Gurtu emigrated to Hambug, Germany in 1978. Shortly afterwards, he toured with Belgian guitarist Philip Catherine and recorded an album, End Of August, with Catherine and Mariano. In the summer of 1993, Gurtu toured Europe in a duo with Josef Zawinul and recorded an album, Crazy Saints, with Zawinul and Pat Metheny. Gurtu continues to teach drum clinics and perform at classical events with modern dancer Carolyn Carlson. In the summer of 1998, he toured with Andy Summers and Larry Coryell...
 
Об альбоме (сборнике)
AMG Review
by Steven McDonald
Trilok Gurtu's percussion work has powered a number of great albums that effectively fuse world music with jazz, allowing for both tight performance and free improvisation. This collection is therefore a gem, selecting ten cuts from six albums. Both an excellent overview and a wonderful place to begin acquainting yourself with Gurtu's music, and thus an essential addition to any jazz or world music collection.
Recording information
Stadtgarten, Cologne, Germany (08/1987-09/1996); Ztudio Zerkail, Germany (08/1987-09/1996).
 
Состав
Trilok Gutru - Drums, Voice, Tabla, Percussion
with
Joe Zawinul - Keyboards, Piano
Pat Metheny - Guitar
Jan Garbarek - Soprano & Tenor Saxophone
Bill Evans - Soprano Saxophone
Ralph Towner - Guitar
Don Cherry - Trumpet
L. Shankar - Violin
Nana Vasconcelos - Percussion
Mark Feldman - Violin
Shobha Gutru - Voice
and many others
01:49
210
Нет комментариев. Ваш будет первым!