Поиск

(Latin Jazz, Flamenco, Big Band) Afrodisian Orchestra - Satierismos - 2011, FLAC (tracks+.cue), lossless

(Latin Jazz, Flamenco, Big Band) Afrodisian Orchestra - Satierismos - 2011, FLAC (tracks+.cue), lossless
Треклист:
Afrodisian Orchestra - Satierismos
Жанр: Latin Jazz, Flamenco, Big Band
Год издания диска: 2011
Издатель (лейбл): Youkali Music
Номер по каталогу: Youkali 025
Страна: Madrid Spain
Аудиокодек: FLAC (*.flac)
Тип рипа: tracks+.cue
Битрейт аудио: lossless
Продолжительность: 00:48:01
Источник (релизер): jlgt
Наличие сканов в содержимом раздачи: да
01. Gnissienne 4 (Tanguillos) [05:44]
02. Intro Tientos [00:47]
03. Gnissienne 3 (Tientos) [05:23]
04. Gnissienne 1 (Baiao) [06:20]
05. Nocturne #3 [04:43]
06. Le Fils Des Etoiles [04:11]
07. Gymnopedie 1 (Samba) [05:03]
08. Gymnopedie 3 (Balada) [04:41]
09. Gymnopedie 2 (Descarga) [04:46]
10. Airs a Faire Fuir [06:18]


Have you ever heard funk, latin, flamenco, jazz and rock in the same piece and still it sounds casual? Well
Thats what the Afrodisian Orchestra does. Check it out!
 
Лог создания рипа
Exact Audio Copy V1.0 beta 2 from 29. April 2011
EAC extraction logfile from 4. November 2011, 22:00
Afrodisian Orchestra / Satierismos
Used drive : PLEXTOR DVDR PX-L890SA Adapter: 2 ID: 1
Read mode : Secure
Utilize accurate stream : Yes
Defeat audio cache : Yes
Make use of C2 pointers : No
Read offset correction : 6
Overread into Lead-In and Lead-Out : No
Fill up missing offset samples with silence : Yes
Delete leading and trailing silent blocks : No
Null samples used in CRC calculations : Yes
Used interface : Native Win32 interface for Win NT & 2000
Gap handling : Appended to previous track
Used output format : User Defined Encoder
Selected bitrate : 256 kBit/s
Quality : High
Add ID3 tag : No
Command line compressor : C:\Program Files (x86)\Exact Audio Copy\FLAC\FLAC.EXE
Additional command line options : -8 -V -T "ARTIST=%artist%" -T "TITLE=%title%" -T "ALBUM=%albumtitle%" -T "DATE=%year%" -T "TRACKNUMBER=%tracknr%" -T "TOTALTRACKS=%numtracks%" -T "GENRE=%genre%" -T "ALBUMARTIST=%albumartist%" -T "ALBUM ARTIST=%albumartist%
TOC of the extracted CD
Track | Start | Length | Start sector | End sector
---------------------------------------------------------
1 | 0:00.00 | 5:44.56 | 0 | 25855
2 | 5:44.56 | 0:47.55 | 25856 | 29435
3 | 6:32.36 | 5:23.66 | 29436 | 53726
4 | 11:56.27 | 6:20.23 | 53727 | 82249
5 | 18:16.50 | 4:43.54 | 82250 | 103528
6 | 23:00.29 | 4:11.04 | 103529 | 122357
7 | 27:11.33 | 5:03.71 | 122358 | 145153
8 | 32:15.29 | 4:41.55 | 145154 | 166283
9 | 36:57.09 | 4:46.36 | 166284 | 187769
10 | 41:43.45 | 6:18.11 | 187770 | 216130
Track 1
Filename F:\Flac Rips\01 - Gnissienne 4 (Tanguillos).wav
Pre-gap length 0:00:02.00
Peak level 99.5 %
Extraction speed 3.9 X
Track quality 100.0 %
Test CRC BE3ED191
Copy CRC BE3ED191
Track not present in AccurateRip database
Copy OK
Track 2
Filename F:\Flac Rips\02 - Intro Tientos.wav
Peak level 97.8 %
Extraction speed 2.5 X
Track quality 100.0 %
Test CRC 200D9C40
Copy CRC 200D9C40
Track not present in AccurateRip database
Copy OK
Track 3
Filename F:\Flac Rips\03 - Gnissienne 3 (Tientos).wav
Peak level 99.3 %
Extraction speed 4.5 X
Track quality 100.0 %
Test CRC FC091B0A
Copy CRC FC091B0A
Track not present in AccurateRip database
Copy OK
Track 4
Filename F:\Flac Rips\04 - Gnissienne 1 (Baiao).wav
Peak level 99.8 %
Extraction speed 5.0 X
Track quality 100.0 %
Test CRC 4A34286E
Copy CRC 4A34286E
Track not present in AccurateRip database
Copy OK
Track 5
Filename F:\Flac Rips\05 - Nocturne #3.wav
Peak level 99.8 %
Extraction speed 5.3 X
Track quality 100.0 %
Test CRC 79054FF5
Copy CRC 79054FF5
Track not present in AccurateRip database
Copy OK
Track 6
Filename F:\Flac Rips\06 - Le Fils Des Etoiles.wav
Peak level 99.8 %
Extraction speed 5.5 X
Track quality 100.0 %
Test CRC 5C14026E
Copy CRC 5C14026E
Track not present in AccurateRip database
Copy OK
Track 7
Filename F:\Flac Rips\07 - Gymnopedie 1 (Samba).wav
Peak level 97.7 %
Extraction speed 5.9 X
Track quality 100.0 %
Test CRC E0B2D0D5
Copy CRC E0B2D0D5
Track not present in AccurateRip database
Copy OK
Track 8
Filename F:\Flac Rips\08 - Gymnopedie 3 (Balada).wav
Peak level 97.5 %
Extraction speed 6.1 X
Track quality 100.0 %
Test CRC 8847AF29
Copy CRC 8847AF29
Track not present in AccurateRip database
Copy OK
Track 9
Filename F:\Flac Rips\09 - Gymnopedie 2 (Descarga).wav
Peak level 99.8 %
Extraction speed 5.3 X
Track quality 99.9 %
Test CRC 90CFFA2A
Copy CRC 90CFFA2A
Track not present in AccurateRip database
Copy OK
Track 10
Filename F:\Flac Rips\10 - Airs a Faire Fuir.wav
Peak level 99.8 %
Extraction speed 5.9 X
Track quality 99.9 %
Test CRC E774448C
Copy CRC E774448C
Track not present in AccurateRip database
Copy OK
None of the tracks are present in the AccurateRip database
No errors occurred
End of status report
==== Log checksum AEE3DAAE6C7A5EA4217448B44BEF71878DB14A4F0C61A48869FE07A6BB6F0629 ====
 
Содержание индексной карты (.CUE)
REM GENRE Jazz
REM DATE 2011
REM DISCID 8A0B410A
REM COMMENT "ExactAudioCopy v1.0b2"
PERFORMER "Afrodisian Orchestra"
TITLE "Satierismos"
FILE "01 - Gnissienne 4 (Tanguillos).wav" WAVE
TRACK 01 AUDIO
TITLE "Gnissienne 4 (Tanguillos)"
PERFORMER "Afrodisian Orchestra"
INDEX 01 00:00:00
FILE "02 - Intro Tientos.wav" WAVE
TRACK 02 AUDIO
TITLE "Intro Tientos"
PERFORMER "Afrodisian Orchestra"
INDEX 01 00:00:00
FILE "03 - Gnissienne 3 (Tientos).wav" WAVE
TRACK 03 AUDIO
TITLE "Gnissienne 3 (Tientos) "
PERFORMER "Afrodisian Orchestra"
INDEX 01 00:00:00
FILE "04 - Gnissienne 1 (Baiao).wav" WAVE
TRACK 04 AUDIO
TITLE "Gnissienne 1 (Baiao)"
PERFORMER "Afrodisian Orchestra"
INDEX 01 00:00:00
FILE "05 - Nocturne #3.wav" WAVE
TRACK 05 AUDIO
TITLE "Nocturne #3"
PERFORMER "Afrodisian Orchestra"
INDEX 01 00:00:00
FILE "06 - Le Fils Des Etoiles.wav" WAVE
TRACK 06 AUDIO
TITLE "Le Fils Des Etoiles"
PERFORMER "Afrodisian Orchestra"
INDEX 01 00:00:00
FILE "07 - Gymnopedie 1 (Samba).wav" WAVE
TRACK 07 AUDIO
TITLE "Gymnopedie 1 (Samba)"
PERFORMER "Afrodisian Orchestra"
INDEX 01 00:00:00
FILE "08 - Gymnopedie 3 (Balada).wav" WAVE
TRACK 08 AUDIO
TITLE "Gymnopedie 3 (Balada)"
PERFORMER "Afrodisian Orchestra"
INDEX 01 00:00:00
FILE "09 - Gymnopedie 2 (Descarga).wav" WAVE
TRACK 09 AUDIO
TITLE "Gymnopedie 2 (Descarga)"
PERFORMER "Afrodisian Orchestra"
INDEX 01 00:00:00
FILE "10 - Airs a Faire Fuir.wav" WAVE
TRACK 10 AUDIO
TITLE "Airs a Faire Fuir"
PERFORMER "Afrodisian Orchestra"
INDEX 01 00:00:00
 
Состав
Miguel Blanco (bajo, dirección); Antonio Lizana (cante, saxo alto, soprano, flauta travesera); Jaime Muela (saxo soprano, flauta, travesera, flauta alto, nay); Ariel Bringuez (saxo tenor, flauta travesera); Miguel Malla (saxo alto, clarinete); Sergio Bienzobas (saxo barítono, clarinete bajo); Fernando Hurtado (trompeta, fliscornio); Carlos Rossi (trompeta, fliscornio); Roberto Pacheco (trombón); Roberto Bazán (trombón); Israel Sandoval (guitarra); Marta Sánchez (piano); Rodrigo Díaz “El niño” (batería); Jorge Pérez (percusión)
00:51
460
Нет комментариев. Ваш будет первым!