Поиск

(Contemporary Jazz, Oriental Jazz) Rabih Abou-Khalil — Trouble In Jerusalem — 2010, FLAC (tracks+.cue), lossless

(Contemporary Jazz, Oriental Jazz) Rabih Abou-Khalil — Trouble In Jerusalem — 2010, FLAC (tracks+.cue), lossless
Треклист:
Rabih Abou-Khalil — Trouble In Jerusalem
Жанр: Contemporary Jazz
Страна-производитель диска: Germany
Год издания диска: 2010
Издатель (лейбл): Enja Records
Номер по каталогу: ENJ-9560 2
Аудиокодек: FLAC (*.flac)
Тип рипа: tracks+.cue
Битрейт аудио: lossless
Продолжительность: 59:30
Источник: Коллекция ordo
Риппер: ordo
Наличие сканов в содержимом раздачи: нет
Треклист:
01. Jerusalem (8:53)
02. Lament (16:26)
03. Gerusalemme Liberata (12:10)
04. Once Upon A Dervish (12:10)
05. Saladin And Nathan The Wise (7:33)
06. A Prayer For Tolerance (2:17)
Personnel:
Rabih Abou-Khalil - oud
Michel Godard - tuba, serpent
Jarrod Cagwin - frame drums
Walter Quintus sound engineer
The German Youth Orchestra (BJO)
conducted by Frank Strobel
Soloists:
Tobias Feldmann - violin
Sarina Zickgraf - viola
Sophie Notte - cello
 
Лог создания рипа
X Lossless Decoder version 20111015 (136.4)
XLD extraction logfile from 2011-11-08 21:26:54 +0000
Rabih Abou-Khalil / Trouble in Jerusalem
Used drive : MATSHITA DVD-R UJ-898 (revision HC10)
Ripper mode : XLD Secure Ripper
Disable audio cache : OK for the drive with a cache less than 1375KiB
Make use of C2 pointers : NO
Read offset correction : 102
Max retry count : 100
Gap status : Analyzed, Appended
TOC of the extracted CD
Track | Start | Length | Start sector | End sector
---------------------------------------------------------
1 | 00:00:00 | 08:53:28 | 0 | 40002
2 | 08:53:28 | 16:25:45 | 40003 | 113922
3 | 25:18:73 | 12:10:08 | 113923 | 168680
4 | 37:29:06 | 12:10:35 | 168681 | 223465
5 | 49:39:41 | 07:33:24 | 223466 | 257464
6 | 57:12:65 | 02:17:08 | 257465 | 267747
AccurateRip Summary
Track 01 : OK (AR2, confidence 4)
Track 02 : OK (AR2, confidence 4)
Track 03 : OK (AR2, confidence 4)
Track 04 : OK (AR2, confidence 4)
Track 05 : OK (AR2, confidence 4)
Track 06 : OK (AR2, confidence 4)
->All tracks accurately ripped.
All Tracks
Album gain : -3.83 dB
Peak : 0.984772
Statistics
Read error : 0
Jitter error (maybe fixed) : 0
Retry sector count : 0
Damaged sector count : 0
Track 01
Filename : /Users/ordoes/RIP/Rabih Abou-Khalil - Trouble in Jerusalem/01 Rabih Abou-Khalil - Jerusalem.flac
Pre-gap length : 00:02:00
Track gain : -1.14 dB
Peak : 0.975372
CRC32 hash (test run) : 6231204C
CRC32 hash : 6231204C
CRC32 hash (skip zero) : 6CE687E5
AccurateRip signature : 71D916CA
->Accurately ripped! (AR2, confidence 4)
Statistics
Read error : 0
Jitter error (maybe fixed) : 0
Retry sector count : 0
Damaged sector count : 0
Track 02
Filename : /Users/ordoes/RIP/Rabih Abou-Khalil - Trouble in Jerusalem/02 Rabih Abou-Khalil - Lament.flac
Pre-gap length : 00:04:06
Track gain : -1.66 dB
Peak : 0.984283
CRC32 hash (test run) : 8B0EFAAA
CRC32 hash : 8B0EFAAA
CRC32 hash (skip zero) : 2A39E456
AccurateRip signature : DD4E4AB2
->Accurately ripped! (AR2, confidence 4)
Statistics
Read error : 0
Jitter error (maybe fixed) : 0
Retry sector count : 0
Damaged sector count : 0
Track 03
Filename : /Users/ordoes/RIP/Rabih Abou-Khalil - Trouble in Jerusalem/03 Rabih Abou-Khalil - Gerusalemme Liberata.flac
Pre-gap length : 00:02:24
Track gain : -4.70 dB
Peak : 0.983398
CRC32 hash (test run) : 780E2F2B
CRC32 hash : 780E2F2B
CRC32 hash (skip zero) : D14D1BBC
AccurateRip signature : B5074EC6
->Accurately ripped! (AR2, confidence 4)
Statistics
Read error : 0
Jitter error (maybe fixed) : 0
Retry sector count : 0
Damaged sector count : 0
Track 04
Filename : /Users/ordoes/RIP/Rabih Abou-Khalil - Trouble in Jerusalem/04 Rabih Abou-Khalil - Oncw Upon a Dervish.flac
Pre-gap length : 00:04:11
Track gain : -4.07 dB
Peak : 0.984070
CRC32 hash (test run) : AC24DCA7
CRC32 hash : AC24DCA7
CRC32 hash (skip zero) : B5E61CF2
AccurateRip signature : 15755105
->Accurately ripped! (AR2, confidence 4)
Statistics
Read error : 0
Jitter error (maybe fixed) : 0
Retry sector count : 0
Damaged sector count : 0
Track 05
Filename : /Users/ordoes/RIP/Rabih Abou-Khalil - Trouble in Jerusalem/05 Rabih Abou-Khalil - Saladin and Nathan the Wise.flac
Pre-gap length : 00:03:18
Track gain : -5.57 dB
Peak : 0.984772
CRC32 hash (test run) : 6410E23C
CRC32 hash : 6410E23C
CRC32 hash (skip zero) : D745EA39
AccurateRip signature : D314F5CB
->Accurately ripped! (AR2, confidence 4)
Statistics
Read error : 0
Jitter error (maybe fixed) : 0
Retry sector count : 0
Damaged sector count : 0
Track 06
Filename : /Users/ordoes/RIP/Rabih Abou-Khalil - Trouble in Jerusalem/06 Rabih Abou-Khalil - A Prayer for Tolerance.flac
Pre-gap length : 00:04:25
Track gain : -5.73 dB
Peak : 0.983246
CRC32 hash (test run) : 80BF1FC4
CRC32 hash : 80BF1FC4
CRC32 hash (skip zero) : D498801F
AccurateRip signature : 7885D778
->Accurately ripped! (AR2, confidence 4)
Statistics
Read error : 0
Jitter error (maybe fixed) : 0
Retry sector count : 0
Damaged sector count : 0
No errors occurred
End of status report
 
Содержание индексной карты (.CUE)
TITLE "Trouble In Jerusalem"
PERFORMER "Rabih Abou-Khalil"
REM GENRE "Jazz"
REM DATE "2010"
REM DISCNUMBER 1
REM TOTALDISCS 1
REM DISCID 430DF106
REM REPLAYGAIN_ALBUM_GAIN -3.83 dB
REM REPLAYGAIN_ALBUM_PEAK 0.984772
FILE "01. Jerusalem.flac" WAVE
TRACK 01 AUDIO
TITLE "Jerusalem"
PERFORMER "Rabih Abou-Khalil"
SONGWRITER "Rabih Abou-Khalil"
ISRC DEA591006001
REM COMMENT "Enja Records"
REM REPLAYGAIN_TRACK_GAIN -1.14 dB
REM REPLAYGAIN_TRACK_PEAK 0.975372
INDEX 01 00:00:00
TRACK 02 AUDIO
TITLE "Lament"
PERFORMER "Rabih Abou-Khalil"
SONGWRITER "Rabih Abou-Khalil"
ISRC DEA591006002
REM COMMENT "Enja Records"
REM REPLAYGAIN_TRACK_GAIN -1.66 dB
REM REPLAYGAIN_TRACK_PEAK 0.984283
INDEX 00 08:49:22
FILE "02. Lament.flac" WAVE
INDEX 01 00:00:00
TRACK 03 AUDIO
TITLE "Gerusalemme Liberata"
PERFORMER "Rabih Abou-Khalil"
SONGWRITER "Rabih Abou-Khalil"
ISRC DEA591006003
REM COMMENT "Enja Records"
REM REPLAYGAIN_TRACK_GAIN -4.70 dB
REM REPLAYGAIN_TRACK_PEAK 0.983398
INDEX 00 16:23:21
FILE "03. Gerusalemme Liberata.flac" WAVE
INDEX 01 00:00:00
TRACK 04 AUDIO
TITLE "Once Upon A Dervish"
PERFORMER "Rabih Abou-Khalil"
SONGWRITER "Rabih Abou-Khalil"
ISRC DEA591006004
REM COMMENT "Enja Records"
REM REPLAYGAIN_TRACK_GAIN -4.07 dB
REM REPLAYGAIN_TRACK_PEAK 0.984070
INDEX 00 12:05:72
FILE "04. Once Upon A Dervish.flac" WAVE
INDEX 01 00:00:00
TRACK 05 AUDIO
TITLE "Saladin And Nathan The Wise"
PERFORMER "Rabih Abou-Khalil"
SONGWRITER "Rabih Abou-Khalil"
ISRC DEA591006005
REM COMMENT "Enja Records"
REM REPLAYGAIN_TRACK_GAIN -5.57 dB
REM REPLAYGAIN_TRACK_PEAK 0.984772
INDEX 00 12:07:17
FILE "05. Saladin And Nathan The Wise.flac" WAVE
INDEX 01 00:00:00
TRACK 06 AUDIO
TITLE "A Prayer For Tolerance"
PERFORMER "Rabih Abou-Khalil"
SONGWRITER "Rabih Abou-Khalil"
ISRC DEA591006006
REM COMMENT "Enja Records"
REM REPLAYGAIN_TRACK_GAIN -5.73 dB
REM REPLAYGAIN_TRACK_PEAK 0.983246
INDEX 00 07:28:74
FILE "06. A Prayer For Tolerance.flac" WAVE
INDEX 01 00:00:00
 
AccurateRip
[CUETools log; Date: 09.11.2011 12:04:11; Version: 2.0.9]
[CTDB TOCID: jU5KL5lt_nHgQ3n3ZvpZjEevIsc-] disk not present in database.
[AccurateRip ID: 001058b6-0055f358-430df106] found.
Track [ CRC ] Status
01 [ddeb9260] (4/8) Accurately ripped
02 [49d543a0] (4/8) Accurately ripped
03 [65f40887] (4/8) Accurately ripped
04 [5f081ad6] (4/8) Accurately ripped
05 [affd82d6] (4/8) Accurately ripped
06 [5e13cdd0] (4/8) Accurately ripped
Track Peak [ CRC32 ] [W/O NULL]
-- 98,4 [AC77FB2D] [FB9154BA]
01 97,5 [6231204C] [6CE687E5]
02 98,4 [8B0EFAAA] [2A39E456]
03 98,3 [780E2F2B] [D14D1BBC]
04 98,4 [AC24DCA7] [B5E61CF2]
05 98,4 [6410E23C] [D745EA39]
06 98,3 [80BF1FC4] [D498801F]
23:50
636
Нет комментариев. Ваш будет первым!