Поиск

(Latin Jazz) Eladio Reinon Latin Jazz Octet & Bebo Valdes - Acere - 1998, APE (image+.cue), lossless

(Latin Jazz) Eladio Reinon Latin Jazz Octet & Bebo Valdes - Acere - 1998, APE (image+.cue), lossless
Треклист:
Eladio Reinon Latin Jazz Octet & Bebo Valdes - Acere
Жанр: Latin Jazz
Год издания диска: 1998
Издатель (лейбл): Fresh Sound/World Jazz
Номер по каталогу: FSWJ 002
Аудиокодек: APE (*.ape)
Тип рипа: image+.cue
Битрейт аудио: lossless
Продолжительность: 57:49
Источник (релизер): JamesBrown (hqshare)
Наличие сканов в содержимом раздачи: да
Треклист:
01. Acere (Valdes) - 10:31
02. Guajira Para Los Pollos (Fania All Stars) - 10:52
03. The Big "B" (Reinon) - 9:26
04. Mercedes (Corona-Valdes) - 3:16
05. Montuno (Valdes) - 11:29
06. Danza No.2 (Cervantes-Valdes) - 2:32
07. La 2da. Referencia (Reinon) - 9:08
 
Лог создания рипа
EAC extraction logfile from 21. September 2007, 22:10 for CD
Eladio Reinуn Latin Jazz Octet & Bebo Valdйs / Acere
Used drive : PLEXTOR DVDR PX-750A Adapter: 2 ID: 1
Read mode : Secure with NO C2, accurate stream, disable cache
Read offset correction : 102
Overread into Lead-In and Lead-Out : No
Used output format : Monkey's Audio Lossless Encoder v3.99 DLL
Normal Lossless Compression
Other options :
Fill up missing offset samples with silence : Yes
Delete leading and trailing silent blocks : No
Native Win32 interface for Win NT & 2000
Range status and errors
Selected range
Filename C:Eladio Reinуn Latin Jazz Octet & Bebo Valdйs - Acere.ape
Peak level 100.0 %
Range quality 100.0 %
CRC BB8A1734
Copy OK
No errors occured
End of status report
 
Содержание индексной карты (.CUE)
REM GENRE Latin
REM DATE 1998
REM DISCID 6B0D8D07
REM COMMENT "ExactAudioCopy v0.95b4"
PERFORMER "Eladio Reinon Latin Jazz Octet & Bebo Valdes"
TITLE "Acere"
FILE "Eladio Reinon Latin Jazz Octet & Bebo Valdes - Acere.wav" WAVE
TRACK 01 AUDIO
TITLE "Acere"
PERFORMER "Eladio Reinon Latin Jazz Octet & Bebo Valdes"
INDEX 01 00:00:00
TRACK 02 AUDIO
TITLE "Guajira Para Los Pollos"
PERFORMER "Eladio Reinon Latin Jazz Octet & Bebo Valdes"
INDEX 00 10:35:16
INDEX 01 10:36:73
TRACK 03 AUDIO
TITLE "The Big 'B'"
PERFORMER "Eladio Reinon Latin Jazz Octet & Bebo Valdes"
INDEX 00 21:32:19
INDEX 01 21:34:01
TRACK 04 AUDIO
TITLE "Mercedes"
PERFORMER "Eladio Reinon Latin Jazz Octet & Bebo Valdes"
INDEX 00 31:02:45
INDEX 01 31:04:27
TRACK 05 AUDIO
TITLE "Montuno"
PERFORMER "Eladio Reinon Latin Jazz Octet & Bebo Valdes"
INDEX 00 34:23:24
INDEX 01 34:25:06
TRACK 06 AUDIO
TITLE "Danza No.2"
PERFORMER "Eladio Reinon Latin Jazz Octet & Bebo Valdes"
INDEX 00 45:57:20
INDEX 01 45:59:02
TRACK 07 AUDIO
TITLE "La 2da. Referencia"
PERFORMER "Eladio Reinon Latin Jazz Octet & Bebo Valdes"
INDEX 00 48:33:06
INDEX 01 48:34:63
 
Об альбоме (сборнике)
The type of record you put on when you want the music to make you feel good, for a long time. Recorded in 1998 it's about as graceful as you can get, a descarga record that just grooves and grooves and grooves; five of the tunes are over nine minutes long. Bebo is on cruise control, his piano figures settling the mostly Spanish band into a groove, letting the soloists take their time. And his improvisations, they're the thing you wait for.
Highly recommended. (Peter Watrous, 2008-06-04)
 
Состав
Eladio Reinon - saxo tenor
Bebo Valdes - piano
Matthew Simon - trompeta
Norman Hogue - trombon
Vicenc Solsona - guitarra, guiro
Josep Cucurella - bajo
Pere Gomez - tumbadora (#1,2,3), bongos (#5,7)
Luis A. Guerra - bongos (#1,3), tumbadora (#5,7), pailas (#2)
Rickard Valdes - pailas (#1,3,5,6,7), campana (#2)
Grabado en Estudios Moraleda, Barcelona, el 27 y 28 de Marzo de 1998.
21:52
329
Нет комментариев. Ваш будет первым!