Поиск

(Latin Jazz) Eladio Reinon Latin Big Band & Bebo Valdes - Afrocuban Jazz Suite No.1 - 1999, APE (image+.cue), lossless

(Latin Jazz) Eladio Reinon Latin Big Band & Bebo Valdes - Afrocuban Jazz Suite No.1 - 1999, APE (image+.cue), lossless
Eladio Reinon Latin Big Band & Bebo Valdes - Afrocuban Jazz Suite No.1
Жанр: Latin Jazz
Год издания диска: 1999
Издатель (лейбл): Fresh Sound
Номер по каталогу: FSWJ 004
Аудиокодек: APE (*.ape)
Тип рипа: image+.cue
Битрейт аудио: lossless
Продолжительность: 73:52
Источник (релизер): JamesBrown (hqshare)
Наличие сканов в содержимом раздачи: да
Треклист:
01. Cachao (Valdes) - 10:22
02. Ecuación (Valdes) - 13:09
03. Devoción (Valdes) - 6:23
04. Nocturno en Batanga (Valdes) - 10:31
05. Copla No.4 (Valdes) - 4:47
06. El Son de Cecilio (Valdes) - 11:05
07. Final: "¿Ar ni Fröken Pehrson?" (Valdes) - 0:28
08. The Big "B" (Reinon) - 9:18
09. Jose's Güaracha (Reinon) - 7:17
 
Лог создания рипа
EAC extraction logfile from 20. May 2008, 23:23 for CD
Eladio Reinуn Latin Big Band & Bebo Valdйs / Afrocuban Jazz Suite nє 1
Used drive : PLEXTOR DVDR PX-750A Adapter: 2 ID: 1
Read mode : Secure with NO C2, accurate stream, disable cache
Read offset correction : 102
Overread into Lead-In and Lead-Out : No
Used output format : Monkey's Audio Lossless Encoder v3.99 DLL
Normal Lossless Compression
Other options :
Fill up missing offset samples with silence : Yes
Delete leading and trailing silent blocks : No
Native Win32 interface for Win NT & 2000
Range status and errors
Selected range
Filename C:\Eladio Reinуn Latin Big Band & Bebo Valdйs - Afrocuban Jazz Suite nє 1.ape
Peak level 100.0 %
Range quality 99.9 %
CRC A2F8A2B5
Copy OK
No errors occured
End of status report
 
Содержание индексной карты (.CUE)
REM GENRE Jazz
REM DATE 1998
REM DISCID 73115009
REM COMMENT "ExactAudioCopy v0.95b4"
PERFORMER "Eladio Reinon Latin Big Band & Bebo Valdes"
TITLE "Afrocuban Jazz Suite No.1"
FILE "Eladio Reinon Latin Big Band & Bebo Valdes - Afrocuban Jazz Suite No.1.wav" WAVE
TRACK 01 AUDIO
TITLE "Cachao"
PERFORMER "Eladio Reinon Latin Big Band & Bebo Valdes"
INDEX 01 00:00:00
TRACK 02 AUDIO
TITLE "Ecuacion"
PERFORMER "Eladio Reinon Latin Big Band & Bebo Valdes"
INDEX 01 10:25:63
TRACK 03 AUDIO
TITLE "Devocion"
PERFORMER "Eladio Reinon Latin Big Band & Bebo Valdes"
INDEX 01 23:38:44
TRACK 04 AUDIO
TITLE "Nocturno en Batanga"
PERFORMER "Eladio Reinon Latin Big Band & Bebo Valdes"
INDEX 01 30:05:23
TRACK 05 AUDIO
TITLE "Copla No.4"
PERFORMER "Eladio Reinon Latin Big Band & Bebo Valdes"
INDEX 01 40:40:03
TRACK 06 AUDIO
TITLE "El Son de Cecilio"
PERFORMER "Eladio Reinon Latin Big Band & Bebo Valdes"
INDEX 01 45:31:44
TRACK 07 AUDIO
TITLE "Final: 'Ar ni Froken Pehrson?'"
PERFORMER "Eladio Reinon Latin Big Band & Bebo Valdes"
INDEX 01 56:39:44
TRACK 08 AUDIO
TITLE "The Big 'B'"
PERFORMER "Eladio Reinon Latin Big Band & Bebo Valdes"
INDEX 01 57:12:37
TRACK 09 AUDIO
TITLE "Jose's Guaracha"
PERFORMER "Eladio Reinon Latin Big Band & Bebo Valdes"
INDEX 01 66:33:13
 
Об альбоме (сборнике)
Reinón, a saxophonist and bandleader from Barcelona, was smart enough to hook up in the late '90s with the overlooked pianist Valdes and include him in two projects, the Latin Jazz Octet and the Latin Big Band. The big band, like the octet, is a work of joy; Valdes composed a suite that lasts nearly an hour, and it's exceptional. It swings, lightly. The band, rehearsed, articulates the arrangements perfectly. Four of the pieces last over ten minutes, the montunos motoring with all the cool of a 12-cylinder engine.
Highly recommended. (Peter Watrous, 2008-06-04)
 
Состав
Bebo Valdés - piano/co-director
Eladio Reinón - director, tenor sax, clarinet
Javier Mezquita - trumpet
David Pastor - trumpet
Matthew Simon - trumpet
Dennis Hernández - trumpet
Goncal Alvarez - trumpet
Carlos Martin - trombone
John Dubuclet - trombone
Juanjo Arróm - trombone
Sergi Verges - bass trombone
Xavier Figueroa - alto sax, clarinet
Mikel Andueza - alto sax
Victor De Diego - tenor sax, flute
Joan Chamorro - baritone sax, flute
José Luis Gamez - guitar
Josep Cucurella - bass
Pere Gómez - conga
Luis A. Guerra - bongo campana (#1-7), pailas (#8,9)
Rickard Valdés - pailas (#1-7), campana (#8,9)
Grabado el dia 21 de Noviembre de 1998 en "Estudi Albert Moraleda", Barcelona.
22:53
270
Нет комментариев. Ваш будет первым!