Поиск

(latin jazz, contemporary) Quasimode - Magic Ensemble - 2011, FLAC (tracks+.cue), lossless

Треклист:
Quasimode - Magic Ensemble
Жанр: latin jazz, contemporary
Год издания диска: 2011
Издатель (лейбл): Blue Note (Japan)
Номер по каталогу: TOCT-27025
Страна: Japan
Аудиокодек: FLAC (*.flac)
Тип рипа: tracks+.cue
Битрейт аудио: lossless
Продолжительность: 01:07:36
Источник (релизер): Saturnize
Наличие сканов в содержимом раздачи: нет
Треклист:
01. Ant Soldier
02. Whisky’s High feat. AFRA (Album Version)
03. Music Can Change the World feat. HanaH
04. Lush Life
05. Waltz Ga Kikoete feat. Hatakeyama Miyuki
06. No More Sadness
07. Conglis Strut
08. Sympathy For The Devil feat. Tabu Zombie
09. Naghol Jumping
10. Rebel Riot
11. Flyin’ To The Dark (Album Version)
12. Cosmic Eyes feat. Kikuchi Naruyoshi
13. Seven Colors feat. Kodama Kazufu
 
Лог создания рипа
Exact Audio Copy V1.0 beta 2 from 29. April 2011
EAC extraction logfile from 23. September 2011, 13:34
Quasimode / Magic Ensemble
Used drive : ASUS DRW-24B1ST a Adapter: 0 ID: 2
Read mode : Secure
Utilize accurate stream : Yes
Defeat audio cache : Yes
Make use of C2 pointers : No
Read offset correction : 6
Overread into Lead-In and Lead-Out : No
Fill up missing offset samples with silence : Yes
Delete leading and trailing silent blocks : No
Null samples used in CRC calculations : Yes
Used interface : Native Win32 interface for Win NT & 2000
Gap handling : Appended to previous track
Used output format : User Defined Encoder
Selected bitrate : 1024 kBit/s
Quality : High
Add ID3 tag : No
Command line compressor : C:\Program Files (x86)\FLAC\flac.exe
Additional command line options : -8 -V -T "ARTIST=%artist%" -T "TITLE=%title%" -T "ALBUM=%albumtitle%" -T "DATE=%year%" -T "TRACKNUMBER=%tracknr%" -T "GENRE=%genre%" -T "PERFORMER=%albuminterpret%" -T "COMPOSER=%composer%" %haslyrics%--tag-from-file=LYRICS
TOC of the extracted CD
Track | Start | Length | Start sector | End sector
---------------------------------------------------------
1 | 0:00.00 | 5:37.63 | 0 | 25337
2 | 5:37.63 | 5:25.47 | 25338 | 49759
3 | 11:03.35 | 5:51.60 | 49760 | 76144
4 | 16:55.20 | 5:27.63 | 76145 | 100732
5 | 22:23.08 | 5:34.52 | 100733 | 125834
6 | 27:57.60 | 4:35.63 | 125835 | 146522
7 | 32:33.48 | 4:59.27 | 146523 | 168974
8 | 37:33.00 | 4:13.73 | 168975 | 188022
9 | 41:46.73 | 5:11.27 | 188023 | 211374
10 | 46:58.25 | 5:51.70 | 211375 | 237769
11 | 52:50.20 | 5:06.13 | 237770 | 260732
12 | 57:56.33 | 5:21.62 | 260733 | 284869
13 | 63:18.20 | 4:45.38 | 284870 | 306282
Track 1
Filename G:\Music\My Uploads\FLAC\Quasimode - Magic Ensemble (2011) [FLAC]\01 Ant Soldier.wav
Pre-gap length 0:00:02.00
Peak level 98.8 %
Extraction speed 3.9 X
Track quality 100.0 %
Test CRC E42BF18D
Copy CRC E42BF18D
Accurately ripped (confidence 2) [2794B5EC] (AR v2)
Copy OK
Track 2
Filename G:\Music\My Uploads\FLAC\Quasimode - Magic Ensemble (2011) [FLAC]\02 Whisky's High.wav
Pre-gap length 0:00:02.58
Peak level 98.8 %
Extraction speed 4.4 X
Track quality 100.0 %
Test CRC 42206B3F
Copy CRC 42206B3F
Accurately ripped (confidence 2) [4B8D1D79] (AR v2)
Copy OK
Track 3
Filename G:\Music\My Uploads\FLAC\Quasimode - Magic Ensemble (2011) [FLAC]\03 Music Can Change The World.wav
Pre-gap length 0:00:01.58
Peak level 98.8 %
Extraction speed 5.0 X
Track quality 100.0 %
Test CRC AD3FCE04
Copy CRC AD3FCE04
Accurately ripped (confidence 2) [50993757] (AR v2)
Copy OK
Track 4
Filename G:\Music\My Uploads\FLAC\Quasimode - Magic Ensemble (2011) [FLAC]\04 Lush Life.wav
Pre-gap length 0:00:02.57
Peak level 98.8 %
Extraction speed 5.3 X
Track quality 100.0 %
Test CRC 0EF5303C
Copy CRC 0EF5303C
Accurately ripped (confidence 2) [6487ACD6] (AR v2)
Copy OK
Track 5
Filename G:\Music\My Uploads\FLAC\Quasimode - Magic Ensemble (2011) [FLAC]\05 Waltz ga Kikoete.wav
Pre-gap length 0:00:02.58
Peak level 98.8 %
Extraction speed 5.8 X
Track quality 100.0 %
Test CRC CB6EE4D7
Copy CRC CB6EE4D7
Accurately ripped (confidence 2) [FA0AF22B] (AR v2)
Copy OK
Track 6
Filename G:\Music\My Uploads\FLAC\Quasimode - Magic Ensemble (2011) [FLAC]\06 No More Sadness.wav
Pre-gap length 0:00:02.57
Peak level 98.8 %
Extraction speed 5.9 X
Track quality 100.0 %
Test CRC 3346E376
Copy CRC 3346E376
Accurately ripped (confidence 2) [A83F234F] (AR v2)
Copy OK
Track 7
Filename G:\Music\My Uploads\FLAC\Quasimode - Magic Ensemble (2011) [FLAC]\07 Conglis Strut.wav
Pre-gap length 0:00:02.58
Peak level 98.8 %
Extraction speed 6.3 X
Track quality 100.0 %
Test CRC 1F219FB9
Copy CRC 1F219FB9
Accurately ripped (confidence 2) [A534343F] (AR v2)
Copy OK
Track 8
Filename G:\Music\My Uploads\FLAC\Quasimode - Magic Ensemble (2011) [FLAC]\08 Sympathy For The Devil.wav
Pre-gap length 0:00:00.58
Peak level 98.8 %
Extraction speed 5.1 X
Track quality 99.9 %
Test CRC D225D04A
Copy CRC D225D04A
Accurately ripped (confidence 2) [1B5D62DC] (AR v2)
Copy OK
Track 9
Filename G:\Music\My Uploads\FLAC\Quasimode - Magic Ensemble (2011) [FLAC]\09 Naghol Jumping.wav
Pre-gap length 0:00:02.58
Peak level 98.8 %
Extraction speed 6.9 X
Track quality 100.0 %
Test CRC BC638E6D
Copy CRC BC638E6D
Accurately ripped (confidence 2) [EDE1D3C5] (AR v2)
Copy OK
Track 10
Filename G:\Music\My Uploads\FLAC\Quasimode - Magic Ensemble (2011) [FLAC]\10 Rebel Riot.wav
Pre-gap length 0:00:02.57
Peak level 98.8 %
Extraction speed 6.1 X
Track quality 99.9 %
Test CRC E2A9D5B3
Copy CRC E2A9D5B3
Accurately ripped (confidence 2) [71945887] (AR v2)
Copy OK
Track 11
Filename G:\Music\My Uploads\FLAC\Quasimode - Magic Ensemble (2011) [FLAC]\11 Flyin' To The Dark.wav
Pre-gap length 0:00:01.20
Peak level 98.8 %
Extraction speed 7.3 X
Track quality 100.0 %
Test CRC 3B25E2FD
Copy CRC 3B25E2FD
Accurately ripped (confidence 2) [94A2B1FF] (AR v2)
Copy OK
Track 12
Filename G:\Music\My Uploads\FLAC\Quasimode - Magic Ensemble (2011) [FLAC]\12 Cosmic Eyes.wav
Pre-gap length 0:00:01.58
Peak level 98.8 %
Extraction speed 7.6 X
Track quality 100.0 %
Test CRC 40E2B04B
Copy CRC 40E2B04B
Accurately ripped (confidence 2) [416AB54B] (AR v2)
Copy OK
Track 13
Filename G:\Music\My Uploads\FLAC\Quasimode - Magic Ensemble (2011) [FLAC]\13 Seven Colors.wav
Pre-gap length 0:00:02.57
Peak level 98.8 %
Extraction speed 6.3 X
Track quality 99.9 %
Test CRC 3F4D9E57
Copy CRC 3F4D9E57
Accurately ripped (confidence 2) [3A50BD50] (AR v2)
Copy OK
All tracks accurately ripped
No errors occurred
End of status report
==== Log checksum 5B004B115FA5E6483A7F2E56B382B4658571D360BEC8DE2E97B153CCD8E22B64 ====
 
Содержание индексной карты (.CUE)
REM GENRE Jazz
REM DATE 2011
REM DISCID BA0FF30D
REM COMMENT "ExactAudioCopy v1.0b2"
PERFORMER "Quasimode"
TITLE "Magic Ensemble"
FILE "01 Ant Soldier.wav" WAVE
TRACK 01 AUDIO
TITLE "Ant Soldier"
PERFORMER "Quasimode"
INDEX 01 00:00:00
TRACK 02 AUDIO
TITLE "Whisky's High"
PERFORMER "Quasimode"
INDEX 00 05:35:05
FILE "02 Whisky's High.wav" WAVE
INDEX 01 00:00:00
TRACK 03 AUDIO
TITLE "Music Can Change The World"
PERFORMER "Quasimode"
INDEX 00 05:23:64
FILE "03 Music Can Change The World.wav" WAVE
INDEX 01 00:00:00
TRACK 04 AUDIO
TITLE "Lush Life"
PERFORMER "Quasimode"
INDEX 00 05:49:03
FILE "04 Lush Life.wav" WAVE
INDEX 01 00:00:00
TRACK 05 AUDIO
TITLE "Waltz ga Kikoete"
PERFORMER "Quasimode"
INDEX 00 05:25:05
FILE "05 Waltz ga Kikoete.wav" WAVE
INDEX 01 00:00:00
TRACK 06 AUDIO
TITLE "No More Sadness"
PERFORMER "Quasimode"
INDEX 00 05:31:70
FILE "06 No More Sadness.wav" WAVE
INDEX 01 00:00:00
TRACK 07 AUDIO
TITLE "Conglis Strut"
PERFORMER "Quasimode"
INDEX 00 04:33:05
FILE "07 Conglis Strut.wav" WAVE
INDEX 01 00:00:00
TRACK 08 AUDIO
TITLE "Sympathy For The Devil"
PERFORMER "Quasimode"
INDEX 00 04:58:44
FILE "08 Sympathy For The Devil.wav" WAVE
INDEX 01 00:00:00
TRACK 09 AUDIO
TITLE "Naghol Jumping"
PERFORMER "Quasimode"
INDEX 00 04:11:15
FILE "09 Naghol Jumping.wav" WAVE
INDEX 01 00:00:00
TRACK 10 AUDIO
TITLE "Rebel Riot"
PERFORMER "Quasimode"
INDEX 00 05:08:45
FILE "10 Rebel Riot.wav" WAVE
INDEX 01 00:00:00
TRACK 11 AUDIO
TITLE "Flyin' To The Dark"
PERFORMER "Quasimode"
INDEX 00 05:50:50
FILE "11 Flyin' To The Dark.wav" WAVE
INDEX 01 00:00:00
TRACK 12 AUDIO
TITLE "Cosmic Eyes"
PERFORMER "Quasimode"
INDEX 00 05:04:30
FILE "12 Cosmic Eyes.wav" WAVE
INDEX 01 00:00:00
TRACK 13 AUDIO
TITLE "Seven Colors"
PERFORMER "Quasimode"
INDEX 00 05:19:05
FILE "13 Seven Colors.wav" WAVE
INDEX 01 00:00:00
23:18
379
Нет комментариев. Ваш будет первым!