Поиск

(Brazilian Jazz, Bossa Nova) Barbara Casini - Uragano Elis - 2004, FLAC (tracks+.cue), lossless

(Brazilian Jazz, Bossa Nova) Barbara Casini - Uragano Elis - 2004, FLAC (tracks+.cue), lossless
Треклист:
Barbara Casini - Uragano Elis
Жанр: Brazilian Jazz, Bossa Nova
Страна-производитель диска: Italy
Год издания диска: 2004
Издатель (лейбл): Via Veneto Jazz
Номер по каталогу: VVJ 051
Страна: Italy, Florence
Аудиокодек: FLAC (*.flac)
Тип рипа: tracks+.cue
Битрейт аудио: lossless
Продолжительность: 00:57:13
Источник (релизер): pieropicco
Наличие сканов в содержимом раздачи: да
01. Agora Ta' [04:03]
02. E' Com Esse Que Eu Vou [04:11]
03. Corrida de Jancada [04:21]
04. Na Batucada Da Vida [06:02]
05. Marambaia [02:05]
06. Vou Deitar e Rolar [03:19]
07. Valsarancho [08:31]
08. Alo Alo Marciano [04:00]
09. Ponta de Areia / Cancao da America [04:59]
10. Veracruz [04:56]
11. Bolero de Sata' [06:03]
12. Calcanhar de Aquiles [04:37]
 
Лог создания рипа
Exact Audio Copy V1.0 beta 1 from 15. November 2010
EAC extraction logfile from 8. March 2011, 16:26
Barbara Casini / Uragano Elis
Used drive : HL-DT-STDVD-ROM GDR8161B Adapter: 0 ID: 1
Read mode : Secure
Utilize accurate stream : Yes
Defeat audio cache : Yes
Make use of C2 pointers : No
Read offset correction : 102
Overread into Lead-In and Lead-Out : No
Fill up missing offset samples with silence : Yes
Delete leading and trailing silent blocks : No
Null samples used in CRC calculations : Yes
Used interface : Native Win32 interface for Win NT & 2000
Gap handling : Appended to previous track
Used output format : User Defined Encoder
Selected bitrate : 768 kBit/s
Quality : High
Add ID3 tag : No
Command line compressor : C:\Program Files (x86)\Exact Audio Copy\FLAC\FLAC.EXE
Additional command line options : -8 -V -T "ARTIST=%a" -T "TITLE=%t" -T "ALBUM=%g" -T "DATE=%y" -T "TRACKNUMBER=%n" -T "TOTALTRACKS=%x" -T "GENRE=%m" -T "ALBUMARTIST=%v" -T "ALBUM ARTIST=%v" -T "COMMENT=EAC Secure Mode, Test & Copy, AccurateRip, FLAC -8" %s
TOC of the extracted CD
Track | Start | Length | Start sector | End sector
---------------------------------------------------------
1 | 0:00.00 | 4:03.31 | 0 | 18255
2 | 4:03.31 | 4:12.43 | 18256 | 37198
3 | 8:15.74 | 4:21.58 | 37199 | 56831
4 | 12:37.57 | 6:04.57 | 56832 | 84188
5 | 18:42.39 | 2:05.36 | 84189 | 93599
6 | 20:48.00 | 3:19.56 | 93600 | 108580
7 | 24:07.56 | 8:33.03 | 108581 | 147058
8 | 32:40.59 | 4:03.15 | 147059 | 165298
9 | 36:43.74 | 4:59.28 | 165299 | 187751
10 | 41:43.27 | 4:56.63 | 187752 | 210014
11 | 46:40.15 | 6:04.62 | 210015 | 237376
12 | 52:45.02 | 4:37.07 | 237377 | 258158
Track 1
Filename D:\UPload\barbara\01 - Agora Ta'.wav
Pre-gap length 0:00:02.00
Peak level 100.0 %
Extraction speed 4.3 X
Track quality 99.9 %
Test CRC 0DB093EA
Copy CRC 0DB093EA
Track not present in AccurateRip database
Copy OK
Track 2
Filename D:\UPload\barbara\02 - E' Com Esse Que Eu Vou.wav
Peak level 89.3 %
Extraction speed 5.6 X
Track quality 100.0 %
Test CRC E8EE7E5D
Copy CRC E8EE7E5D
Track not present in AccurateRip database
Copy OK
Track 3
Filename D:\UPload\barbara\03 - Corrida de Jancada.wav
Pre-gap length 0:00:00.46
Peak level 100.0 %
Extraction speed 6.2 X
Track quality 100.0 %
Test CRC C84FDD05
Copy CRC C84FDD05
Track not present in AccurateRip database
Copy OK
Track 4
Filename D:\UPload\barbara\04 - Na Batucada Da Vida.wav
Peak level 100.0 %
Extraction speed 7.1 X
Track quality 100.0 %
Test CRC E8B86514
Copy CRC E8B86514
Track not present in AccurateRip database
Copy OK
Track 5
Filename D:\UPload\barbara\05 - Marambaia.wav
Pre-gap length 0:00:02.14
Peak level 92.7 %
Extraction speed 6.4 X
Track quality 100.0 %
Test CRC E9A6BFF0
Copy CRC E9A6BFF0
Track not present in AccurateRip database
Copy OK
Track 6
Filename D:\UPload\barbara\06 - Vou Deitar e Rolar.wav
Peak level 92.2 %
Extraction speed 7.2 X
Track quality 100.0 %
Test CRC 3FFF4116
Copy CRC 3FFF4116
Track not present in AccurateRip database
Copy OK
Track 7
Filename D:\UPload\barbara\07 - Valsarancho.wav
Pre-gap length 0:00:00.45
Peak level 100.0 %
Extraction speed 8.0 X
Track quality 99.9 %
Test CRC A332D81A
Copy CRC A332D81A
Track not present in AccurateRip database
Copy OK
Track 8
Filename D:\UPload\barbara\08 - Alo Alo Marciano.wav
Pre-gap length 0:00:01.38
Peak level 94.4 %
Extraction speed 8.5 X
Track quality 100.0 %
Test CRC 119B5E35
Copy CRC 119B5E35
Track not present in AccurateRip database
Copy OK
Track 9
Filename D:\UPload\barbara\09 - Ponta de Areia , Cancao da America.wav
Pre-gap length 0:00:02.26
Peak level 63.7 %
Extraction speed 9.0 X
Track quality 100.0 %
Test CRC 046EA66D
Copy CRC 046EA66D
Track not present in AccurateRip database
Copy OK
Track 10
Filename D:\UPload\barbara\10 - Veracruz.wav
Peak level 100.0 %
Extraction speed 8.0 X
Track quality 99.9 %
Test CRC 20342764
Copy CRC 20342764
Track not present in AccurateRip database
Copy OK
Track 11
Filename D:\UPload\barbara\11 - Bolero de Sata'.wav
Peak level 85.6 %
Extraction speed 10.0 X
Track quality 100.0 %
Test CRC 1E3C8DA4
Copy CRC 1E3C8DA4
Track not present in AccurateRip database
Copy OK
Track 12
Filename D:\UPload\barbara\12 - Calcanhar de Aquiles.wav
Pre-gap length 0:00:00.73
Peak level 100.0 %
Extraction speed 9.9 X
Track quality 100.0 %
Test CRC A90ED3E7
Copy CRC A90ED3E7
Track not present in AccurateRip database
Copy OK
None of the tracks are present in the AccurateRip database
No errors occurred
End of status report
==== Log checksum 29A0C8B53AF23A6F564D6F2D25F6D0F2CCBB32D7EF1F90BDE867F12A6AF6C080 ====
 
Содержание индексной карты (.CUE)
REM GENRE Jazz
REM DATE 2004
REM DISCID 9C0D720C
REM COMMENT "ExactAudioCopy v1.0b1"
PERFORMER "Barbara Casini"
TITLE "Uragano Elis"
FILE "01 - Agora Ta'.wav" WAVE
TRACK 01 AUDIO
TITLE "Agora Ta'"
PERFORMER "Barbara Casini"
INDEX 01 00:00:00
FILE "02 - E' Com Esse Que Eu Vou.wav" WAVE
TRACK 02 AUDIO
TITLE "E' Com Esse Que Eu Vou"
PERFORMER "Barbara Casini"
INDEX 01 00:00:00
TRACK 03 AUDIO
TITLE "Corrida de Jancada"
PERFORMER "Barbara Casini"
INDEX 00 04:11:72
FILE "03 - Corrida de Jancada.wav" WAVE
INDEX 01 00:00:00
FILE "04 - Na Batucada Da Vida.wav" WAVE
TRACK 04 AUDIO
TITLE "Na Batucada Da Vida"
PERFORMER "Barbara Casini"
INDEX 01 00:00:00
TRACK 05 AUDIO
TITLE "Marambaia"
PERFORMER "Barbara Casini"
INDEX 00 06:02:43
FILE "05 - Marambaia.wav" WAVE
INDEX 01 00:00:00
FILE "06 - Vou Deitar e Rolar.wav" WAVE
TRACK 06 AUDIO
TITLE "Vou Deitar e Rolar"
PERFORMER "Barbara Casini"
INDEX 01 00:00:00
TRACK 07 AUDIO
TITLE "Valsarancho"
PERFORMER "Barbara Casini"
INDEX 00 03:19:11
FILE "07 - Valsarancho.wav" WAVE
INDEX 01 00:00:00
TRACK 08 AUDIO
TITLE "Alo Alo Marciano"
PERFORMER "Barbara Casini"
INDEX 00 08:31:40
FILE "08 - Alo Alo Marciano.wav" WAVE
INDEX 01 00:00:00
TRACK 09 AUDIO
TITLE "Ponta de Areia / Cancao da America"
PERFORMER "Barbara Casini"
INDEX 00 04:00:64
FILE "09 - Ponta de Areia , Cancao da America.wav" WAVE
INDEX 01 00:00:00
FILE "10 - Veracruz.wav" WAVE
TRACK 10 AUDIO
TITLE "Veracruz"
PERFORMER "Barbara Casini"
INDEX 01 00:00:00
FILE "11 - Bolero de Sata'.wav" WAVE
TRACK 11 AUDIO
TITLE "Bolero de Sata'"
PERFORMER "Barbara Casini"
INDEX 01 00:00:00
TRACK 12 AUDIO
TITLE "Calcanhar de Aquiles"
PERFORMER "Barbara Casini"
INDEX 00 06:03:64
FILE "12 - Calcanhar de Aquiles.wav" WAVE
INDEX 01 00:00:00
 
Состав
Barbara Casini – voce
Arrangiamenti di Paolo Silvestri
Riccardo Luppi – sax tenore, sax alto, flauto
Marco Tamburini – tromba, flicorno
Roberto Rossi – trombone, conchiglie
Natalio Mangalavite – pianoforte, piano Fender
Dado Moroni – pianoforte
Sandro Gibellini – chitarra elettrica, chitarra acustica
Raffaello Pareti – contrabbasso, basso elettrico
Francesco Petreni – batteria
Heraldo da Silva – pandeiro, cuica, tamborim, surdo, congas
00:17
354
Нет комментариев. Ваш будет первым!