Поиск

(Latin Jazz, Contemporary Jazz, Big Band) Paquito D'Rivera - Big Band Time - 2003, FLAC (tracks+.cue), lossless

Треклист:
Paquito D'Rivera - Big Band Time Жанр: Latin Jazz, Contemporary Jazz, Big Band
Год выпуска диска: 2003
Производитель диска: Pimienta Records
Аудио кодек: FLAC
Тип рипа: tracks+.cue
Битрейт аудио: lossless
Продолжительность: 69:36
Трэклист:
01. To Brenda With Love
02. Danza Caracteristica
03. Song for Maura
04. Basstronaut
05. Who's Smokin'?
06. Y la Negra Bailaba
07. Andalucia
08. A Lo Tristano
09. Como un Bolero
10. Annette's for Sure
Featuring
Paquito d'Rivera: Clarinet, Alto Saxophone
Koji Paul Shigihara: Guitar
Heiner Wiberny: Alto Saxophone
Olivier Peters: Tenor Saxophone
Claudio Roditi: Trumpet,Flugelhorn
Ludwig Nuss: Trombone
Oscar Stagnaro: Bass
John Goldsby: Bass
Mark Walker: Drums
Frank Chasteneir: Piano
Pernell Saturnino: Percussion
Рип от Richard.drummer, fusionjazzandsomethingelse.
 
EAC extraction logfile
Exact Audio Copy V0.99 prebeta 5 from 4. May 2009
Archivo Log de extracciones desde 18. Marzo 2010, 12:52
Paquito D' Rivera / Big Band Time
Usar unidad : HL-DT-STDVDRAM GH22NS50 Adapter: 2 ID: 0
Modo de Lectura : Seguro
Utilizar Corriente Exacta : Sн
Descartar Audio cachй : Sн
Utilizar los punteros C2 : No
Correcciуn de Desplazamiento de Lectura : 102
Sobreleer tanto en Lead-In como en Lead-Out : No
Rellenar las muestras faltantes con silencios : Sн
Eliminar silencios inicial y final : No
Se han usado muestras nulas en los cбlculos CRC : Sн
Interfaz usada : Interfaz ASPI externo instalado
Gestiуn de Gaps : Aсadido a la pista previa
Formato de Salida utilizado : Compresor definido por el usuario
Bitrate seleccionado : 1024 kBit/s
Calidad : Alta
Aсadir Etiqueta ID3 : No
Compresor de linea de comandos : C:\Archivos de programa\Exact Audio Copy\FLAC\FLAC.EXE
Opciones adicionales en lнnea de comandos : -6 -V -T "ARTIST=%a" -T "TITLE=%t" -T "ALBUM=%g" -T "DATE=%y" -T "TRACKNUMBER=%n" -T "GENRE=%m" -T "COMMENT=%e" %s -o %d
TOC del CD extraido
Pista | Inicio | Duraciуn | Sector inicial | Sector final
-------------------------------------------------------------
1 | 0:00.00 | 6:36.07 | 0 | 29706
2 | 6:36.07 | 7:55.63 | 29707 | 65394
3 | 14:31.70 | 7:45.17 | 65395 | 100286
4 | 22:17.12 | 6:25.10 | 100287 | 129171
5 | 28:42.22 | 8:50.73 | 129172 | 168994
6 | 37:33.20 | 7:41.17 | 168995 | 203586
7 | 45:14.37 | 8:25.48 | 203587 | 241509
8 | 53:40.10 | 5:31.60 | 241510 | 266394
9 | 59:11.70 | 6:24.12 | 266395 | 295206
10 | 65:36.07 | 4:00.14 | 295207 | 313220
Pista 1
Nombre de Archivo D:\Emule\Incoming\01. To Brenda With Love.wav
Longitud Pre-gap 0:00:02.00
Nivel Pico 99.9 %
Calidad de Pista 100.0 %
Copiar CRC A092E017
Copia OK
Pista 2
Nombre de Archivo D:\Emule\Incoming\02. Danza Caracteristica.wav
Nivel Pico 99.9 %
Calidad de Pista 99.9 %
Copiar CRC 4869E7CE
Copia OK
Pista 3
Nombre de Archivo D:\Emule\Incoming\03. Song For Maura.wav
Nivel Pico 99.2 %
Calidad de Pista 99.9 %
Copiar CRC 53D02F5C
Copia OK
Pista 4
Nombre de Archivo D:\Emule\Incoming\04. Basstronaut.wav
Nivel Pico 100.0 %
Calidad de Pista 100.0 %
Copiar CRC FFBBB627
Copia OK
Pista 5
Nombre de Archivo D:\Emule\Incoming\05. Who's Smokin.wav
Nivel Pico 99.9 %
Calidad de Pista 99.9 %
Copiar CRC 2B00FA15
Copia OK
Pista 6
Nombre de Archivo D:\Emule\Incoming\06. Y La negra.wav
Nivel Pico 99.8 %
Calidad de Pista 99.9 %
Copiar CRC 6F3E7A5C
Copia OK
Pista 7
Nombre de Archivo D:\Emule\Incoming\07. Andalucia.wav
Nivel Pico 99.1 %
Calidad de Pista 100.0 %
Copiar CRC 8DA29047
Copia OK
Pista 8
Nombre de Archivo D:\Emule\Incoming\08. A Lo Tristano.wav
Nivel Pico 99.6 %
Calidad de Pista 100.0 %
Copiar CRC 4BD319A7
Copia OK
Pista 9
Nombre de Archivo D:\Emule\Incoming\09. Como Un Bolero.wav
Nivel Pico 98.1 %
Calidad de Pista 99.9 %
Copiar CRC CF4F3396
Copia OK
Pista 10
Nombre de Archivo D:\Emule\Incoming\10. Annete's For Shure.wav
Nivel Pico 99.5 %
Calidad de Pista 100.0 %
Copiar CRC 3CE06581
Copia OK
Sin Errores
Final del Informe
 
Audiochecker logfile
Started at: воскресенье, 04. 07. 2010. - 20:23.58
10 files found
01 -===- c:\Downloads\Paquito D' Rivera - Big Band Time\01. To Brenda With Love.flac
Extracted successfully
Conclusion: this track is CDDA with probability 100%
Tempfile successfully deleted.
02 -===- c:\Downloads\Paquito D' Rivera - Big Band Time\02. Danza Caracteristica.flac
Extracted successfully
Conclusion: this track is CDDA with probability 100%
Tempfile successfully deleted.
03 -===- c:\Downloads\Paquito D' Rivera - Big Band Time\03. Song For Maura.flac
Extracted successfully
Conclusion: this track is CDDA with probability 100%
Tempfile successfully deleted.
04 -===- c:\Downloads\Paquito D' Rivera - Big Band Time\04. Basstronaut.flac
Extracted successfully
Conclusion: this track is CDDA with probability 99%
Tempfile successfully deleted.
05 -===- c:\Downloads\Paquito D' Rivera - Big Band Time\05. Who's Smokin.flac
Extracted successfully
Conclusion: this track is CDDA with probability 100%
Tempfile successfully deleted.
06 -===- c:\Downloads\Paquito D' Rivera - Big Band Time\06. Y La negra.flac
Extracted successfully
Conclusion: this track is CDDA with probability 100%
Tempfile successfully deleted.
07 -===- c:\Downloads\Paquito D' Rivera - Big Band Time\07. Andalucia.flac
Extracted successfully
Conclusion: this track is CDDA with probability 100%
Tempfile successfully deleted.
08 -===- c:\Downloads\Paquito D' Rivera - Big Band Time\08. A Lo Tristano.flac
Extracted successfully
Conclusion: this track is CDDA with probability 100%
Tempfile successfully deleted.
09 -===- c:\Downloads\Paquito D' Rivera - Big Band Time\09. Como Un Bolero.flac
Extracted successfully
Conclusion: this track is CDDA with probability 100%
Tempfile successfully deleted.
10 -===- c:\Downloads\Paquito D' Rivera - Big Band Time\10. Annete's For Shure.flac
Extracted successfully
Conclusion: this track is CDDA with probability 100%
Tempfile successfully deleted.
Finished at: воскресенье, 04. 07. 2010. - 20:29.02 (operation time: 0:05.03)
 
CUE file
REM GENRE "latin jazz"
REM DATE 2003
REM DISCID 9410500A
REM COMMENT "ExactAudioCopy v0.99pb5"
PERFORMER "Paquito D'Rivera"
TITLE "Big Band Time"
FILE "01. To Brenda With Love.flac" WAVE
TRACK 01 AUDIO
TITLE "To Brenda With Love"
PERFORMER "Paquito D'Rivera"
INDEX 01 00:00:00
FILE "02. Danza Caracteristica.flac" WAVE
TRACK 02 AUDIO
TITLE "Danza Caracteristica"
PERFORMER "Paquito D'Rivera"
INDEX 01 00:00:00
FILE "03. Song For Maura.flac" WAVE
TRACK 03 AUDIO
TITLE "Song For Maura"
PERFORMER "Paquito D'Rivera"
INDEX 01 00:00:00
FILE "04. Basstronaut.flac" WAVE
TRACK 04 AUDIO
TITLE "Basstronaut"
PERFORMER "Paquito D'Rivera"
INDEX 01 00:00:00
FILE "05. Who's Smokin.flac" WAVE
TRACK 05 AUDIO
TITLE "Who's Smokin'?"
PERFORMER "Paquito D'Rivera"
INDEX 01 00:00:00
FILE "06. Y La Negra.flac" WAVE
TRACK 06 AUDIO
TITLE "Y La Negra Bailaba"
PERFORMER "Paquito D'Rivera"
INDEX 01 00:00:00
FILE "07. Andalucia.flac" WAVE
TRACK 07 AUDIO
TITLE "Andalucia"
PERFORMER "Paquito D'Rivera"
INDEX 01 00:00:00
FILE "08. A Lo Tristano.flac" WAVE
TRACK 08 AUDIO
TITLE "A Lo Tristano"
PERFORMER "Paquito D'Rivera"
INDEX 01 00:00:00
FILE "09. Como Un Bolero.flac" WAVE
TRACK 09 AUDIO
TITLE "Como Un Bolero"
PERFORMER "Paquito D'Rivera"
INDEX 01 00:00:00
FILE "10. Annete's For Shure.flac" WAVE
TRACK 10 AUDIO
TITLE "Annette's For Sure"
PERFORMER "Paquito D'Rivera"
INDEX 01 00:00:00
It's showtime! ... Не, не так.... It's bigbandtime! Предпрослушка Приятных впечатлений!
16:41
264
Нет комментариев. Ваш будет первым!