Поиск

(Latin, Bossanova) Bebel Gilberto - All In One - 2009, FLAC (tracks+.cue), lossless

Треклист:
Bebel Gilberto - All In One Label: Verve Records
Catalog#: B0013353-02
Format: CD, Album
Country: US
Жанр: Latin, Bossanova
Год выпуска диска: 2009
Аудио кодек: FLAC
Тип рипа: tracks+.cue
Битрейт аудио: lossless, 811 kbps ABR
Продолжительность: 00:43:16
Источник: Soulseek, гранд мерси: archfart
Трэклист:
1. Canção De Amor
2. Sun Is Shining
3. Bim Bom
4. Nossa Senhora
5. The Real Thing
6. Ela (On My Way)
7. Far From The Sea
8. All In One
9. Forever
10. Segredo (Secret)
11. Chica Chica Boom Chic
12. Port Antonio
 
XLD log
X Lossless Decoder version 20090320 (105.1)
XLD extraction logfile from 2009-10-18 04:35:15 -0400
Bebel Gilberto / All In One
Used drive : MATSHITA DVD-R UJ-867 (revision HA13)
Use cdparanoia mode : YES (CDParanoia III 10.2 engine)
Disable audio cache : OK for the drive with cache less than 2750KB
Make use of C2 pointers : NO
Read offset correction : 102
Max retry count : 100
TOC of the extracted CD
Track | Start | Length | Start sector | End sector
---------------------------------------------------------
1 | 00:00:00 | 04:25:67 | 0 | 19941
2 | 04:25:67 | 03:56:22 | 19942 | 37663
3 | 08:22:14 | 02:43:10 | 37664 | 49898
4 | 11:05:24 | 03:24:73 | 49899 | 65271
5 | 14:30:22 | 04:33:16 | 65272 | 85762
6 | 19:03:38 | 03:19:28 | 85763 | 100715
7 | 22:22:66 | 03:22:08 | 100716 | 115873
8 | 25:44:74 | 04:23:71 | 115874 | 135669
9 | 30:08:70 | 02:29:12 | 135670 | 146856
10 | 32:38:07 | 03:44:31 | 146857 | 163687
11 | 36:22:38 | 03:04:49 | 163688 | 177536
12 | 39:27:12 | 03:49:02 | 177537 | 194713
Track 01
Filename : /we are the dreamers of dreams/Bebel Gilberto - All In One/01 - Bebel Gilberto - Cancao De Amor.flac
CRC32 hash (test run) : C36FA32E
CRC32 hash : C36FA32E
CRC32 hash (skip zero) : 626BB4DF
AccurateRip signature : D4407213
->Track not present in AccurateRip database.
Statistics
Read error : 0
Skipped (treated as error) : 0
Edge jitter error (maybe fixed) : 1
Atom jitter error (maybe fixed) : 0
Drift error (maybe fixed) : 0
Dropped bytes error (maybe fixed) : 1
Duplicated bytes error (maybe fixed) : 1
Inconsistency in error sectors : 0
Track 02
Filename : /we are the dreamers of dreams/Bebel Gilberto - All In One/02 - Bebel Gilberto - Sun Is Shining.flac
CRC32 hash (test run) : 59F89AD0
CRC32 hash : 59F89AD0
CRC32 hash (skip zero) : D1BCECE2
AccurateRip signature : C14E17B3
->Track not present in AccurateRip database.
Statistics
Read error : 0
Skipped (treated as error) : 0
Edge jitter error (maybe fixed) : 0
Atom jitter error (maybe fixed) : 0
Drift error (maybe fixed) : 0
Dropped bytes error (maybe fixed) : 0
Duplicated bytes error (maybe fixed) : 0
Inconsistency in error sectors : 0
Track 03
Filename : /we are the dreamers of dreams/Bebel Gilberto - All In One/03 - Bebel Gilberto - Bim Bom.flac
CRC32 hash (test run) : B3E20EAC
CRC32 hash : B3E20EAC
CRC32 hash (skip zero) : 4F005854
AccurateRip signature : E386B5D1
->Track not present in AccurateRip database.
Statistics
Read error : 0
Skipped (treated as error) : 0
Edge jitter error (maybe fixed) : 0
Atom jitter error (maybe fixed) : 0
Drift error (maybe fixed) : 0
Dropped bytes error (maybe fixed) : 0
Duplicated bytes error (maybe fixed) : 0
Inconsistency in error sectors : 0
Track 04
Filename : /we are the dreamers of dreams/Bebel Gilberto - All In One/04 - Bebel Gilberto - Nossa Senhora.flac
CRC32 hash (test run) : 0C0FDE74
CRC32 hash : 0C0FDE74
CRC32 hash (skip zero) : 61B9C4CA
AccurateRip signature : 6C084772
->Track not present in AccurateRip database.
Statistics
Read error : 0
Skipped (treated as error) : 0
Edge jitter error (maybe fixed) : 0
Atom jitter error (maybe fixed) : 0
Drift error (maybe fixed) : 0
Dropped bytes error (maybe fixed) : 0
Duplicated bytes error (maybe fixed) : 0
Inconsistency in error sectors : 0
Track 05
Filename : /we are the dreamers of dreams/Bebel Gilberto - All In One/05 - Bebel Gilberto - The Real Thing.flac
CRC32 hash (test run) : AC7FD2BB
CRC32 hash : AC7FD2BB
CRC32 hash (skip zero) : 5DA65676
AccurateRip signature : 3EAF9726
->Track not present in AccurateRip database.
Statistics
Read error : 0
Skipped (treated as error) : 0
Edge jitter error (maybe fixed) : 0
Atom jitter error (maybe fixed) : 0
Drift error (maybe fixed) : 0
Dropped bytes error (maybe fixed) : 0
Duplicated bytes error (maybe fixed) : 0
Inconsistency in error sectors : 0
Track 06
Filename : /we are the dreamers of dreams/Bebel Gilberto - All In One/06 - Bebel Gilberto - Ela (On My Way).flac
CRC32 hash (test run) : BFD61A11
CRC32 hash : BFD61A11
CRC32 hash (skip zero) : 336E6EFD
AccurateRip signature : 02F21ECF
->Track not present in AccurateRip database.
Statistics
Read error : 0
Skipped (treated as error) : 0
Edge jitter error (maybe fixed) : 0
Atom jitter error (maybe fixed) : 0
Drift error (maybe fixed) : 0
Dropped bytes error (maybe fixed) : 0
Duplicated bytes error (maybe fixed) : 0
Inconsistency in error sectors : 0
Track 07
Filename : /we are the dreamers of dreams/Bebel Gilberto - All In One/07 - Bebel Gilberto - Far From The Sun.flac
CRC32 hash (test run) : 2FFAA0A7
CRC32 hash : 2FFAA0A7
CRC32 hash (skip zero) : 3D18689E
AccurateRip signature : C54912A8
->Track not present in AccurateRip database.
Statistics
Read error : 0
Skipped (treated as error) : 0
Edge jitter error (maybe fixed) : 0
Atom jitter error (maybe fixed) : 0
Drift error (maybe fixed) : 0
Dropped bytes error (maybe fixed) : 0
Duplicated bytes error (maybe fixed) : 0
Inconsistency in error sectors : 0
Track 08
Filename : /we are the dreamers of dreams/Bebel Gilberto - All In One/08 - Bebel Gilberto - All In One.flac
CRC32 hash (test run) : 01F9EB66
CRC32 hash : 01F9EB66
CRC32 hash (skip zero) : 3AC4BB2D
AccurateRip signature : 57705FB8
->Track not present in AccurateRip database.
Statistics
Read error : 0
Skipped (treated as error) : 0
Edge jitter error (maybe fixed) : 0
Atom jitter error (maybe fixed) : 0
Drift error (maybe fixed) : 0
Dropped bytes error (maybe fixed) : 0
Duplicated bytes error (maybe fixed) : 0
Inconsistency in error sectors : 0
Track 09
Filename : /we are the dreamers of dreams/Bebel Gilberto - All In One/09 - Bebel Gilberto - Forever.flac
CRC32 hash (test run) : D04ECC23
CRC32 hash : D04ECC23
CRC32 hash (skip zero) : D18F9155
AccurateRip signature : C7BBCF93
->Track not present in AccurateRip database.
Statistics
Read error : 0
Skipped (treated as error) : 0
Edge jitter error (maybe fixed) : 0
Atom jitter error (maybe fixed) : 0
Drift error (maybe fixed) : 0
Dropped bytes error (maybe fixed) : 0
Duplicated bytes error (maybe fixed) : 0
Inconsistency in error sectors : 0
Track 10
Filename : /we are the dreamers of dreams/Bebel Gilberto - All In One/10 - Bebel Gilberto - Secret (Segredo).flac
CRC32 hash (test run) : 8B84E49C
CRC32 hash : 8B84E49C
CRC32 hash (skip zero) : 2A50B4A6
AccurateRip signature : 0DB85B4D
->Track not present in AccurateRip database.
Statistics
Read error : 0
Skipped (treated as error) : 0
Edge jitter error (maybe fixed) : 0
Atom jitter error (maybe fixed) : 0
Drift error (maybe fixed) : 0
Dropped bytes error (maybe fixed) : 0
Duplicated bytes error (maybe fixed) : 0
Inconsistency in error sectors : 0
Track 11
Filename : /we are the dreamers of dreams/Bebel Gilberto - All In One/11 - Bebel Gilberto - Chica Chica Boom Chic.flac
CRC32 hash (test run) : 51DB5130
CRC32 hash : 51DB5130
CRC32 hash (skip zero) : B5F94B05
AccurateRip signature : 2E3D4137
->Track not present in AccurateRip database.
Statistics
Read error : 0
Skipped (treated as error) : 0
Edge jitter error (maybe fixed) : 0
Atom jitter error (maybe fixed) : 0
Drift error (maybe fixed) : 0
Dropped bytes error (maybe fixed) : 0
Duplicated bytes error (maybe fixed) : 0
Inconsistency in error sectors : 0
Track 12
Filename : /we are the dreamers of dreams/Bebel Gilberto - All In One/12 - Bebel Gilberto - Port Antonio.flac
CRC32 hash (test run) : 8BB8911E
CRC32 hash : 8BB8911E
CRC32 hash (skip zero) : 458642E5
AccurateRip signature : B09C3C23
->Track not present in AccurateRip database.
Statistics
Read error : 0
Skipped (treated as error) : 0
Edge jitter error (maybe fixed) : 0
Atom jitter error (maybe fixed) : 0
Drift error (maybe fixed) : 0
Dropped bytes error (maybe fixed) : 0
Duplicated bytes error (maybe fixed) : 0
Inconsistency in error sectors : 0
No errors occurred
End of status report
 
.cue
TITLE "All In One"
PERFORMER "Bebel Gilberto"
CATALOG 0602527166902
REM GENRE "Jazz"
FILE "%A - All In One/01 - Bebel Gilberto - Cancao De Amor.wav" WAVE
TRACK 01 AUDIO
TITLE "Cancao De Amor"
ISRC USUM70981334
INDEX 01 00:00:00
FILE "%A - All In One/02 - Bebel Gilberto - Sun Is Shining.wav" WAVE
TRACK 02 AUDIO
TITLE "Sun Is Shining"
ISRC USUM70981330
INDEX 01 00:00:00
FILE "%A - All In One/03 - Bebel Gilberto - Bim Bom.wav" WAVE
TRACK 03 AUDIO
TITLE "Bim Bom"
ISRC USUM70981329
INDEX 01 00:00:00
FILE "%A - All In One/04 - Bebel Gilberto - Nossa Senhora.wav" WAVE
TRACK 04 AUDIO
TITLE "Nossa Senhora"
ISRC USUM70981355
INDEX 01 00:00:00
FILE "%A - All In One/05 - Bebel Gilberto - The Real Thing.wav" WAVE
TRACK 05 AUDIO
TITLE "The Real Thing"
ISRC USUM70981331
INDEX 01 00:00:00
FILE "%A - All In One/06 - Bebel Gilberto - Ela (On My Way).wav" WAVE
TRACK 06 AUDIO
TITLE "Ela (On My Way)"
ISRC USUM70981356
INDEX 01 00:00:00
FILE "%A - All In One/07 - Bebel Gilberto - Far From The Sun.wav" WAVE
TRACK 07 AUDIO
TITLE "Far From The Sun"
ISRC USUM70981357
INDEX 01 00:00:00
FILE "%A - All In One/08 - Bebel Gilberto - All In One.wav" WAVE
TRACK 08 AUDIO
TITLE "All In One"
ISRC USUM70981332
INDEX 01 00:00:00
FILE "%A - All In One/09 - Bebel Gilberto - Forever.wav" WAVE
TRACK 09 AUDIO
TITLE "Forever"
ISRC USUM70981367
INDEX 01 00:00:00
FILE "%A - All In One/10 - Bebel Gilberto - Secret (Segredo).wav" WAVE
TRACK 10 AUDIO
TITLE "Secret (Segredo)"
ISRC USUM70981368
INDEX 01 00:00:00
FILE "%A - All In One/11 - Bebel Gilberto - Chica Chica Boom Chic.wav" WAVE
TRACK 11 AUDIO
TITLE "Chica Chica Boom Chic"
ISRC USUM70979340
INDEX 01 00:00:00
FILE "%A - All In One/12 - Bebel Gilberto - Port Antonio.wav" WAVE
TRACK 12 AUDIO
TITLE "Port Antonio"
ISRC USUM70981369
INDEX 01 00:00:00
15:42
261
Нет комментариев. Ваш будет первым!