Поиск

(Latin Jazz) Compay Segundo - Grandez Exitos - 2000, APE (image + .cue), lossless

Треклист:
Compay Segundo - Grandez Exitos
Страна: Cuba
Жанр: Latin Jazz
Год выпуска: 2000
Формат: APE (image + .cue)
Битрейт аудио: lossless
Продолжительность: 72:57
Трэклист:
1 Filiberto
2 Juramento
3 Un Jardin De Amor
4 Qui Parle Francais
5 Te Apartas De Mi
6 Me Diras Que Sabroso
7 El Calderito
8 Pobre Corazon
9 Francisco Guyabal
10 Maria En La Playa
11 De Jatibonico A Bolondron
12 Como La Avellaneda
13 Descripcion De Un Sueno
14 Sanluisera
15 Chicharrones Con Tostones
16 A La Casa De La Trova
17 Alli Donde Tu Sabes
18 La Pulidora
19 Pena
20 Chan Chan
Настоящий кубинский диск.
 
Отчёт EAC
Exact Audio Copy V0.99 prebeta 3 from 28. July 2007
Отчёт EAC об извлечении, выполненном 6. февраля 2008, 11:52
Compay Segundo / Grandez Exitos
Дисковод: MATSHITAUJDA755 DVD/CDRW Adapter: 1 ID: 0
Режим чтения : Достоверность
Использование точного потока : Да
Отключение кэша аудио : Да
Использование указателей C2 : Нет
Комбинированное смещение чтения/записи : 102
Способность читать области Lead-in и Lead-out : Нет
Заполнение пропущенных сэмплов тишиной : Да
Удаление блоков с тишиной в начале и конце : Нет
При вычислениях CRC использовались нулевые сэмплы : Нет
Интерфейс : Встроенный Win32-интерфейс для Win NT/2000
Выходной формат : Внутренние WAV-операции
Формат сэмплов : 44.100 Гц; 16 бит; стерео
TOC извлечённого CD
Трек | Старт | Длительность | Начальный сектор | Конечный сектор
---------------------------------------------------------------------
1 | 0:00.00 | 2:37.22 | 0 | 11796
2 | 2:37.22 | 3:36.51 | 11797 | 28047
3 | 6:13.73 | 2:54.03 | 28048 | 41100
4 | 9:08.01 | 2:36.13 | 41101 | 52813
5 | 11:44.14 | 2:24.63 | 52814 | 63676
6 | 14:09.02 | 3:40.11 | 63677 | 80187
7 | 17:49.13 | 3:25.69 | 80188 | 95631
8 | 21:15.07 | 4:09.70 | 95632 | 114376
9 | 25:25.02 | 2:56.21 | 114377 | 127597
10 | 28:21.23 | 3:29.55 | 127598 | 143327
11 | 31:51.03 | 3:39.23 | 143328 | 159775
12 | 35:30.26 | 3:41.73 | 159776 | 176423
13 | 39:12.24 | 3:15.67 | 176424 | 191115
14 | 42:28.16 | 4:08.49 | 191116 | 209764
15 | 46:36.65 | 4:50.73 | 209765 | 231587
16 | 51:27.63 | 4:41.24 | 231588 | 252686
17 | 56:09.12 | 3:48.36 | 252687 | 269822
18 | 59:57.48 | 4:36.55 | 269823 | 290577
19 | 64:34.28 | 4:08.58 | 290578 | 309235
20 | 68:43.11 | 4:14.53 | 309236 | 328338
Характеристики диапазона извлечения и сообщения об ошибках
Выбранный диапазон
Имя файла C:\lossless\Compay Segundo - Grandez Exitos.wav
Пиковый уровень 100.0 %
Качество диапазона 100.0 %
CRC копии 582B1B74
Копирование... OK
Ошибок не произошло
Конец отчёта
00:20
405
Нет комментариев. Ваш будет первым!