Поиск

(Jazz) Oregon Trio - Music for A Midsummer Night'S Dream - 1998, FLAC (image + .cue), lossless

(Jazz) Oregon Trio - Music for A Midsummer Night'S Dream - 1998, FLAC (image + .cue), lossless
Oregon Trio - Music for A Midsummer Night'S Dream
Страна: USA
Жанр: Jazz
Год выпуска: 1998
Формат: FLAC (image + .cue)
Битрейт аудио: lossless
Продолжительность: 40:05
Трэклист:
1 Prologue
2 Puckish Business
3 Love in Idleness
4 What Hempen Homespuns Have We Swaggering Here?
5 Titania's Lament
6 Oberon's Blessing
7 Bottom's Dream
8 Nightmare
9 Hermia's Galliard
10 Suite
1 Spotted Snakes, Thorny Hedgehogs
2 The Fairies Enter
3 Oberon's Warth
11 Music Box
12 The Ousel Cock
13 Now the Hungry Lion Roars
14 Pursue Me Not
15 Lord, What Fools These Mortals Be!
16 The Moon Looks with a Watery Eye
17 Serenade
18 Rehearsing for the Duke
19 Spirits of Another Sort
20 Oberon and Titania's Dance
21 Oberon's Blessing (reprise)
Ralph Towner, Glen Moore, and Paul McCandless
 
EAC Report
Exact Audio Copy V0.99 prebeta 4 from 23. January 2008
EAC extraction logfile from 9. February 2008, 17:35
Oregon / Music for A Midsummer Night's Dream
Used drive : MATSHITADVD-RAM UJ-840S Adapter: 1 ID: 0
Read mode : Secure
Utilize accurate stream : Yes
Defeat audio cache : No
Make use of C2 pointers : Yes
Read offset correction : 102
Overread into Lead-In and Lead-Out : No
Fill up missing offset samples with silence : Yes
Delete leading and trailing silent blocks : No
Null samples used in CRC calculations : Yes
Used interface : Installed external ASPI interface
Used output format : User Defined Encoder
Selected bitrate : 1024 kBit/s
Quality : High
Add ID3 tag : No
Command line compressor : C:\Program Files\Exact Audio Copy\FLAC\FLAC.EXE
Additional command line options : -6 -V -T "ARTIST=%a" -T "TITLE=%t" -T "ALBUM=%g" -T "DATE=%y" -T "TRACKNUMBER=%n" -T "GENRE=%m" -T "COMMENT=%e" %s -o %d
TOC of the extracted CD
Track | Start | Length | Start sector | End sector
---------------------------------------------------------
1 | 0:00.30 | 3:04.49 | 30 | 13878
2 | 3:05.04 | 1:25.52 | 13879 | 20305
3 | 4:30.56 | 2:08.65 | 20306 | 29970
4 | 6:39.46 | 1:15.69 | 29971 | 35664
5 | 7:55.40 | 2:11.34 | 35665 | 45523
6 | 10:06.74 | 1:48.25 | 45524 | 53648
7 | 11:55.24 | 1:16.52 | 53649 | 59400
8 | 13:12.01 | 2:28.40 | 59401 | 70540
9 | 15:40.41 | 2:18.17 | 70541 | 80907
10 | 17:58.58 | 1:54.64 | 80908 | 89521
11 | 19:53.47 | 1:10.68 | 89522 | 94839
12 | 21:04.40 | 1:13.02 | 94840 | 100316
13 | 22:17.42 | 1:44.55 | 100317 | 108171
14 | 24:02.22 | 0:30.49 | 108172 | 110470
15 | 24:32.71 | 1:09.62 | 110471 | 115707
16 | 25:42.58 | 3:42.26 | 115708 | 132383
17 | 29:25.09 | 2:30.58 | 132384 | 143691
18 | 31:55.67 | 2:59.40 | 143692 | 157156
19 | 34:55.32 | 1:28.45 | 157157 | 163801
20 | 36:24.02 | 1:47.19 | 163802 | 171845
21 | 38:11.21 | 1:53.44 | 171846 | 180364
Range status and errors
Selected range
Filename C:\Documents and Settings\Igor\My Documents\Upload\Oregon\Oregon - Music for A Midsummer Night's Dream (1998)\Oregon - Music for A Midsummer Night's Dream.wav
Peak level 100.0 %
Range quality 100.0 %
Copy CRC CB141745
Copy OK
No errors occurred
AccurateRip summary
Track 1 not present in database
Track 2 not present in database
Track 3 not present in database
Track 4 not present in database
Track 5 not present in database
Track 6 not present in database
Track 7 not present in database
Track 8 not present in database
Track 9 not present in database
Track 10 not present in database
Track 11 not present in database
Track 12 not present in database
Track 13 not present in database
Track 14 not present in database
Track 15 not present in database
Track 16 not present in database
Track 17 not present in database
Track 18 not present in database
Track 19 not present in database
Track 20 not present in database
Track 21 not present in database
None of the tracks are present in the AccurateRip database
End of status report

ТОРРЕНТ ПЕРЕЗАЛИТ 24.05.2017, 00:50 МСК по техническим причинам. Содержимое не менялось.
Просьба ко всем ранее скачавшим, присоединяться к раздаче.
01:19
282
Нет комментариев. Ваш будет первым!