Поиск

(Latin Jazz) Chucho Valdes - Featuring Cachaito - 2002, FLAC (tracks+.cue), lossless

(Latin Jazz) Chucho Valdes - Featuring Cachaito - 2002, FLAC (tracks+.cue), lossless
Треклист:
Chucho Valdés – Featuring Cachaito
Жанр: Latin Jazz
Год издания диска: 2002
Издатель (лейбл): Egrem/Yemaya Records
Номер по каталогу: YY9421
Аудиокодек: FLAC (*.flac)
Тип рипа: tracks+.cue
Битрейт аудио: lossless
Продолжительность: 61:52
Rip by Sarchiapone
Наличие сканов в содержимом раздачи: да
Треклист:
01. El Manisero (3:36)
02. Dos Perlas Y Un Dolor (3:10)
03. La Sombra (1:52)
04. Preludio No1 (1:40)
05. Me Faltabas Tu (1:59)
06. Cancion De La Tarde (2:52)
07. Cancion De Un Festival (3:19)
08. Sony (3:47)
09. Realidad Y Fantasia (3:36)
10. Novia Mia (3:32)
11. Tu, Mi Delirio (3:06)
12. Invento No4 (3:08)
13. Evocation A Ignacio Cervantes (1:13)
14. Evocation A Manuel Saumell (3:11)
15. Evocation A Lico Jimenez (1:04)
16. Evocation A Jose White (1:28)
17. Berceuse A Jessie (2:05)
18. Desde Longia (9:15)
19. Preludio A Catalina (1:43)
20. My Reverie (6:17)
Personnel:
Chucho Valdés - p
German Velazco (20), Jose Luis Cortes (20) - fl
Orlando 'Cachaito' Lopez (2-12), Carlos Del Puerto (20) - b
Enrique Pla (2-12) - d
Rec.: La Habana, Cuba, October 1970 (#1-12, 19); 1982 (#20); February 1986 (#13-18).
 
 
Лог создания рипа
Exact Audio Copy V0.99 prebeta 4 from 23. January 2008
EAC extraction logfile from 11. February 2008, 12:01
Chucho Valdes / Featuring Cachaito
Used drive : PLEXTOR CD-R PREMIUM2 Adapter: 1 ID: 1
Read mode : Secure
Utilize accurate stream : Yes
Defeat audio cache : Yes
Make use of C2 pointers : No
Read offset correction : 30
Overread into Lead-In and Lead-Out : No
Fill up missing offset samples with silence : Yes
Delete leading and trailing silent blocks : No
Null samples used in CRC calculations : Yes
Used interface : Installed external ASPI interface
Gap handling : Appended to previous track
Used output format : User Defined Encoder
Selected bitrate : 32 kBit/s
Quality : High
Add ID3 tag : No
Command line compressor : C:\Programmi\FLAC\flac.exe
Additional command line options : -8 -V -T "ARTIST=%a" -T "TITLE=%t" -T "ALBUM=%g" -T "DATE=%y" -T "TRACKNUMBER=%n" -T "GENRE=%m" -T "COMMENT=EAC FLAC -8" %s
TOC of the extracted CD
Track | Start | Length | Start sector | End sector
---------------------------------------------------------
1 | 0:00.00 | 3:36.14 | 0 | 16213
2 | 3:36.14 | 3:09.74 | 16214 | 30462
3 | 6:46.13 | 1:52.06 | 30463 | 38868
4 | 8:38.19 | 1:40.20 | 38869 | 46388
5 | 10:18.39 | 1:58.64 | 46389 | 55302
6 | 12:17.28 | 2:51.53 | 55303 | 68180
7 | 15:09.06 | 3:18.68 | 68181 | 83098
8 | 18:27.74 | 3:46.43 | 83099 | 100091
9 | 22:14.42 | 3:35.62 | 100092 | 116278
10 | 25:50.29 | 3:31.49 | 116279 | 132152
11 | 29:22.03 | 3:06.25 | 132153 | 146127
12 | 32:28.28 | 3:07.45 | 146128 | 160197
13 | 35:35.73 | 1:12.63 | 160198 | 165660
14 | 36:48.61 | 3:10.67 | 165661 | 179977
15 | 39:59.53 | 1:04.05 | 179978 | 184782
16 | 41:03.58 | 1:27.73 | 184783 | 191380
17 | 42:31.56 | 2:05.20 | 191381 | 200775
18 | 44:37.01 | 9:15.12 | 200776 | 242412
19 | 53:52.13 | 1:43.25 | 242413 | 250162
20 | 55:35.38 | 6:16.72 | 250163 | 278434
Track 1
Filename C:\My Rip\01 - El Manisero.wav
Pre-gap length 0:00:02.00
Peak level 100.0 %
Track quality 99.9 %
Test CRC A9BED28A
Copy CRC A9BED28A
Copy OK
Track 2
Filename C:\My Rip\02 - Dos Perlas Y Un Dolor.wav
Pre-gap length 0:00:02.00
Peak level 100.0 %
Track quality 100.0 %
Test CRC CDFE88ED
Copy CRC CDFE88ED
Copy OK
Track 3
Filename C:\My Rip\03 - La Sombra.wav
Pre-gap length 0:00:02.00
Peak level 100.0 %
Track quality 100.0 %
Test CRC 4B557A6C
Copy CRC 4B557A6C
Copy OK
Track 4
Filename C:\My Rip\04 - Preludio No1.wav
Pre-gap length 0:00:02.00
Peak level 100.0 %
Track quality 99.8 %
Test CRC 56CE04F8
Copy CRC 56CE04F8
Copy OK
Track 5
Filename C:\My Rip\05 - Me Faltabas Tu.wav
Pre-gap length 0:00:02.00
Peak level 100.0 %
Track quality 100.0 %
Test CRC 7C8688E3
Copy CRC 7C8688E3
Copy OK
Track 6
Filename C:\My Rip\06 - Cancion De La Tarde.wav
Pre-gap length 0:00:02.00
Peak level 100.0 %
Track quality 100.0 %
Test CRC 14346558
Copy CRC 14346558
Copy OK
Track 7
Filename C:\My Rip\07 - Cancion De Un Festival.wav
Pre-gap length 0:00:02.00
Peak level 100.0 %
Track quality 99.9 %
Test CRC 815154A1
Copy CRC 815154A1
Copy OK
Track 8
Filename C:\My Rip\08 - Sony.wav
Pre-gap length 0:00:02.00
Peak level 100.0 %
Track quality 100.0 %
Test CRC 0B4C5ED9
Copy CRC 0B4C5ED9
Copy OK
Track 9
Filename C:\My Rip\09 - Realidad Y Fantasia.wav
Pre-gap length 0:00:02.00
Peak level 100.0 %
Track quality 99.9 %
Test CRC 0107A96C
Copy CRC 0107A96C
Copy OK
Track 10
Filename C:\My Rip\10 - Novia Mia.wav
Pre-gap length 0:00:02.00
Peak level 100.0 %
Track quality 100.0 %
Test CRC 95E39DA2
Copy CRC 95E39DA2
Copy OK
Track 11
Filename C:\My Rip\11 - Tu, Mi Delirio.wav
Pre-gap length 0:00:02.00
Peak level 100.0 %
Track quality 100.0 %
Test CRC F7815EC8
Copy CRC F7815EC8
Copy OK
Track 12
Filename C:\My Rip\12 - Invento No4.wav
Pre-gap length 0:00:02.00
Peak level 99.9 %
Track quality 99.9 %
Test CRC 9BAAAC94
Copy CRC 9BAAAC94
Copy OK
Track 13
Filename C:\My Rip\13 - Evocation A Ignacio Cervantes.wav
Pre-gap length 0:00:02.00
Peak level 100.0 %
Track quality 100.0 %
Test CRC F8EBD166
Copy CRC F8EBD166
Copy OK
Track 14
Filename C:\My Rip\14 - Evocation A Manuel Saumell.wav
Pre-gap length 0:00:02.00
Peak level 99.9 %
Track quality 100.0 %
Test CRC 6704CF7A
Copy CRC 6704CF7A
Copy OK
Track 15
Filename C:\My Rip\15 - Evocation A Lico Jimenez.wav
Pre-gap length 0:00:02.00
Peak level 99.9 %
Track quality 99.8 %
Test CRC 28CC9BE1
Copy CRC 28CC9BE1
Copy OK
Track 16
Filename C:\My Rip\16 - Evocation A Jose White.wav
Pre-gap length 0:00:02.00
Peak level 99.9 %
Track quality 99.8 %
Test CRC F77FBB53
Copy CRC F77FBB53
Copy OK
Track 17
Filename C:\My Rip\17 - Berceuse A Jessie.wav
Pre-gap length 0:00:02.00
Peak level 99.9 %
Track quality 100.0 %
Test CRC 613010BC
Copy CRC 613010BC
Copy OK
Track 18
Filename C:\My Rip\18 - Desde Longia.wav
Pre-gap length 0:00:02.00
Peak level 99.9 %
Track quality 100.0 %
Test CRC 0E08A953
Copy CRC 0E08A953
Copy OK
Track 19
Filename C:\My Rip\19 - Preludio A Catalina.wav
Pre-gap length 0:00:02.00
Peak level 100.0 %
Track quality 100.0 %
Test CRC 8401806A
Copy CRC 8401806A
Copy OK
Track 20
Filename C:\My Rip\20 - My Reverie.wav
Pre-gap length 0:00:02.00
Peak level 99.9 %
Track quality 100.0 %
Test CRC B7410848
Copy CRC B7410848
Copy OK
No errors occurred
End of status report
 
Содержание индексной карты (.CUE)
REM GENRE Latin
REM DATE 2002
REM DISCID F90E8014
REM COMMENT "ExactAudioCopy v0.99pb4"
PERFORMER "Chucho Valdes"
TITLE "Featuring Cachaito"
FILE "01 - El Manisero.flac" WAVE
TRACK 01 AUDIO
TITLE "El Manisero"
PERFORMER "Chucho Valdes"
INDEX 01 00:00:00
TRACK 02 AUDIO
TITLE "Dos Perlas Y Un Dolor"
PERFORMER "Chucho Valdes"
INDEX 00 03:34:14
FILE "02 - Dos Perlas Y Un Dolor.flac" WAVE
INDEX 01 00:00:00
TRACK 03 AUDIO
TITLE "La Sombra"
PERFORMER "Chucho Valdes"
INDEX 00 03:07:74
FILE "03 - La Sombra.flac" WAVE
INDEX 01 00:00:00
TRACK 04 AUDIO
TITLE "Preludio No1"
PERFORMER "Chucho Valdes"
INDEX 00 01:50:06
FILE "04 - Preludio No1.flac" WAVE
INDEX 01 00:00:00
TRACK 05 AUDIO
TITLE "Me Faltabas Tu"
PERFORMER "Chucho Valdes"
INDEX 00 01:38:20
FILE "05 - Me Faltabas Tu.flac" WAVE
INDEX 01 00:00:00
TRACK 06 AUDIO
TITLE "Cancion De La Tarde"
PERFORMER "Chucho Valdes"
INDEX 00 01:56:64
FILE "06 - Cancion De La Tarde.flac" WAVE
INDEX 01 00:00:00
TRACK 07 AUDIO
TITLE "Cancion De Un Festival"
PERFORMER "Chucho Valdes"
INDEX 00 02:49:53
FILE "07 - Cancion De Un Festival.flac" WAVE
INDEX 01 00:00:00
TRACK 08 AUDIO
TITLE "Sony"
PERFORMER "Chucho Valdes"
INDEX 00 03:16:68
FILE "08 - Sony.flac" WAVE
INDEX 01 00:00:00
TRACK 09 AUDIO
TITLE "Realidad Y Fantasia"
PERFORMER "Chucho Valdes"
INDEX 00 03:44:43
FILE "09 - Realidad Y Fantasia.flac" WAVE
INDEX 01 00:00:00
TRACK 10 AUDIO
TITLE "Novia Mia"
PERFORMER "Chucho Valdes"
INDEX 00 03:33:62
FILE "10 - Novia Mia.flac" WAVE
INDEX 01 00:00:00
TRACK 11 AUDIO
TITLE "Tu, Mi Delirio"
PERFORMER "Chucho Valdes"
INDEX 00 03:29:49
FILE "11 - Tu, Mi Delirio.flac" WAVE
INDEX 01 00:00:00
TRACK 12 AUDIO
TITLE "Invento No4"
PERFORMER "Chucho Valdes"
INDEX 00 03:04:25
FILE "12 - Invento No4.flac" WAVE
INDEX 01 00:00:00
TRACK 13 AUDIO
TITLE "Evocation A Ignacio Cervantes"
PERFORMER "Chucho Valdes"
INDEX 00 03:05:45
FILE "13 - Evocation A Ignacio Cervantes.flac" WAVE
INDEX 01 00:00:00
TRACK 14 AUDIO
TITLE "Evocation A Manuel Saumell"
PERFORMER "Chucho Valdes"
INDEX 00 01:10:63
FILE "14 - Evocation A Manuel Saumell.flac" WAVE
INDEX 01 00:00:00
TRACK 15 AUDIO
TITLE "Evocation A Lico Jimenez"
PERFORMER "Chucho Valdes"
INDEX 00 03:08:67
FILE "15 - Evocation A Lico Jimenez.flac" WAVE
INDEX 01 00:00:00
TRACK 16 AUDIO
TITLE "Evocation A Jose White"
PERFORMER "Chucho Valdes"
INDEX 00 01:02:05
FILE "16 - Evocation A Jose White.flac" WAVE
INDEX 01 00:00:00
TRACK 17 AUDIO
TITLE "Berceuse A Jessie"
PERFORMER "Chucho Valdes"
INDEX 00 01:25:73
FILE "17 - Berceuse A Jessie.flac" WAVE
INDEX 01 00:00:00
TRACK 18 AUDIO
TITLE "Desde Longia"
PERFORMER "Chucho Valdes"
INDEX 00 02:03:20
FILE "18 - Desde Longia.flac" WAVE
INDEX 01 00:00:00
TRACK 19 AUDIO
TITLE "Preludio A Catalina"
PERFORMER "Chucho Valdes"
INDEX 00 09:13:12
FILE "19 - Preludio A Catalina.flac" WAVE
INDEX 01 00:00:00
TRACK 20 AUDIO
TITLE "My Reverie"
PERFORMER "Chucho Valdes"
INDEX 00 01:41:25
FILE "20 - My Reverie.flac" WAVE
INDEX 01 00:00:00
 
AccurateRip
[CUETools log; Date: 31.01.2012 21:30:54; Version: 2.0.9]
[CTDB TOCID: aGSSNXLxTLIWPM75G1IBzUqIa5o-] disk not present in database.
[AccurateRip ID: 0028ffee-025cd2a2-f90e8014] found.
Track [ CRC ] Status
01 [6fb0d10a] (2/2) Accurately ripped
02 [59c2509a] (2/2) Accurately ripped
03 [28496b09] (2/2) Accurately ripped
04 [e63dbdfa] (2/2) Accurately ripped
05 [517c251d] (2/2) Accurately ripped
06 [9c232462] (2/2) Accurately ripped
07 [2d58e356] (2/2) Accurately ripped
08 [03b93c93] (2/2) Accurately ripped
09 [1c3084d1] (2/2) Accurately ripped
10 [3960cd1e] (2/2) Accurately ripped
11 [36ddeab8] (2/2) Accurately ripped
12 [c323a7fd] (2/2) Accurately ripped
13 [eddeb6c5] (2/2) Accurately ripped
14 [ff9d8777] (2/2) Accurately ripped
15 [ad3c743e] (2/2) Accurately ripped
16 [617dc0fc] (2/2) Accurately ripped
17 [44464475] (2/2) Accurately ripped
18 [576859d7] (2/2) Accurately ripped
19 [e4d1955b] (2/2) Accurately ripped
20 [cd0cf3c6] (2/2) Accurately ripped
Track Peak [ CRC32 ] [W/O NULL]
-- 100,0 [615548AF] [CC91E532]
01 100,0 [A9BED28A] [E1C194D5]
02 100,0 [CDFE88ED] [34DB0D0A]
03 100,0 [4B557A6C] [514BB26B]
04 100,0 [56CE04F8] [20F4FEFF]
05 100,0 [7C8688E3] [567D1247]
06 100,0 [14346558] [FD0B3240]
07 100,0 [815154A1] [1F8FAAF2]
08 100,0 [0B4C5ED9] [0F0A737A]
09 100,0 [0107A96C] [D19DB941]
10 100,0 [95E39DA2] [C0F177F2]
11 100,0 [F7815EC8] [1FA58B5A]
12 99,9 [9BAAAC94] [7B3DCCFA]
13 100,0 [F8EBD166] [6D101F4C]
14 99,9 [6704CF7A] [8EFEF9ED]
15 99,9 [28CC9BE1] [693F9DB4]
16 99,9 [F77FBB53] [2F341EAF]
17 99,9 [613010BC] [1C29825D]
18 99,9 [0E08A953] [447450E5]
19 100,0 [8401806A] [3BBF5D84]
20 99,9 [B7410848] [8FE49E09]
02:22
257
Нет комментариев. Ваш будет первым!